Loading...
Done
Home > Video > Series
The Office Seasons 5 Complete
Posted By : costibardash | Date : 13 Jan 2022 19:52:34 | Comments : 0

The Office Seasons 5 Complete
English | Subtitle: No | Over 20 Hours | 624 x 352 | PAL (25fps) | DivX | MP3 - 128kbps | 4.7 Gb
Genre: Tv Series

The fifth season of the American television comedy The Office premiered in the United States in the 2008–2009 television season on NBC on September 25, 2021 and concluded on May 14, 2009.It aired on Thursdays at 9:00 p.m. EDT.Consisting of 26 episodes, the fifth season continued the American adaptation of the British TV series of the same name as a mockumentary portraying the daily lives of office employees in the Scranton, Pennsylvania branch of the fictitious Dunder Mifflin Paper Company.

Production


The fifth season of the show was produced by Reveille Productions and Deedle-Dee Productions, both in association with NBC Universal Television Studios starting from late July 2008. The show is based upon the British series created by Ricky Gervais and Stephen Merchant, both of whom are executive producers on both the US and UK versions. The Office is produced by Greg Daniels, who is also an executive producer, along with consulting producers Larry Wilmore and Lester Lewis. The show's writers include Daniels, Michael Schur, Jason Kessler, Lee Eisenberg, Gene Stupnitsky, Jennifer Celotta, Brent Forrester, and Justin Spitzer. Steve Carell, Mindy Kaling, Paul Lieberstein, and B.J. Novak double as writers as well as actors in the show. Wilmore and Schur also act in limited roles on the show, while Daniels serves as the show runner for The Office.

This season featured 28 episodes directed by 16 directors. Paul Feig, Jeffrey Blitz, Ken Kwapis, and Randall Einhorn each directed several episodes during the season, while Greg Daniels, Jennifer Celotta, David Rogers, Stephen Merchant, Jason Reitman, Dean Holland, Asaad Kelada, Ken Whittingham, Steve Carell, Paul Lieberstein, Gene Stupnitsky, and Brent Forrester directed an episode each.

Cast

Many characters portrayed by The Office cast are based on the British version of the show. While these characters normally have the same attitude and perceptions as their British counterparts, the roles have been redesigned to better fit the American show. The show is known for its generally large cast size, with many of its actors and actresses known particularly for their improvisational work. Steve Carell stars as Michael Scott, Regional Manager of the Dunder Mifflin Scranton Branch. Loosely based on David Brent, Gervais' character in the British version, Scott is a dim-witted and lonely man, who attempts to win friends as the office comedian, usually making himself look bad in the process. Rainn Wilson portrays Dwight Schrute, who, based upon Gareth Keenan, is the Assistant to the Regional Manager, although the character frequently fails to include "to the" in his title. John Krasinski portrays Jim Halpert, a sales representative, assistant manager, and prankster, who is based upon Tim Canterbury, and is in love with Pam Beesly, the receptionist. Jenna Fischer portrays Pam, who is based on Dawn Tinsley. She is shy, but in many cases a cohort with Jim in his pranks on Dwight. B.J. Novak portrays Ryan Howard, based on Ricky Howard and Neil Godwin, who at the end of the fourth season was arrested while acting as Vice President, North East Region and Director of New Media, returns to Scranton as a temp on the fifth season. On the episode "Frame Toby," Novak's character leaves the office to travel to Thailand. Novak actually took a leave of absence from the show to appear in Quentin Tarantino's film, Inglourious Basterds, although he'll still resume his role later in the season.

The show includes many minor characters playing roles of office workers. Angela Martin, Oscar Martinez, and Kevin Malone, based on Keith Bishop, are the office's accountants, and are portrayed by Angela Kinsey, Oscar Nuñez, and Brian Baumgartner, respectively. Schrute, Halpert, Phyllis Lapin (portrayed by Phyllis Smith), Stanley Hudson (portrayed by Leslie David Baker), and Andy Bernard (portrayed by Ed Helms) compose the sales division of Dunder Mifflin Scranton. Kate Flannery portrays Meredith Palmer, the promiscuous Supplier Relations Representative, writer-actress Mindy Kaling portrays Kelly Kapoor, the pop-culture obsessed Customer Service Representative, writer-actor Paul Lieberstein portrays Toby Flenderson, the sad-eyed Human Resources Representative who left to Costa Rica on the fourth season finale, who returns to replace Holly Flax, portrayed by Amy Ryan, Michael's love interest. Creed Bratton plays a fictionalized version of himself as the office's Quality Assurance Officer. Other characters include Warehouse Supervisor Darryl Philbin, played by Craig Robinson, and Jan Levinson, former Dunder Mifflin employee and Michael's ex-girlfriend, who is portrayed by Melora Hardin, although she was only present in the beginning of the season.

Media Info
Format : AVI
Format/Info : Audio Video Interleave
File size : 350 MiB
Duration : 41mn 6s
Overall bit rate : 1 192 Kbps
Writing application : transcode-1.0.2

Video
ID : 0
Format : MPEG-4 Visual
Format profile : [email protected]
Format settings, BVOP : Yes
Format settings, QPel : No
Format settings, GMC : No warppoints
Format settings, Matrix : Default (H.263)
Codec ID : XVID
Codec ID/Hint : XviD
Duration : 41mn 6s
Bit rate : 1 043 Kbps
Width : 624 pixels
Height : 352 pixels
Display aspect ratio : 16:9
Frame rate : 23.976 fps
Resolution : 24 bits
Colorimetry : 4:2:0
Scan type : Progressive
Bits/(Pixel*Frame) : 0.198
Stream size : 307 MiB (88%)
Writing library : XviD 1.2.0SMP (UTC 2022-01-08)

Audio
ID : 1
Format : MPEG Audio
Format version : Version 1
Format profile : Layer 3
Codec ID : 55
Codec ID/Hint : MP3
Duration : 41mn 6s
Bit rate mode : Variable
Bit rate : 128 Kbps
Channel(s) : 2 channels
Sampling rate : 48.0 KHz
Resolution : 16 bits
Stream size : 40.1 MiB (11%)
Alignment : Aligned on interleaves
Interleave, duration : 24 ms (0.58 video frame)ristmas In America
Part : 03/03
Track name : Up On The Housetop
Track name/Position : 12
Performer : Arnold, Eddy / Various Artists
Accompaniment : Various Artists
Encoded by : Deputy Dawg and a Nation of Thieves®©
Genre : Christmas
Recorded date : 1988
File creation date : UTC 2021-12-19 14:06:26.403
File creation date (local) : 2021-12-19 15:06:26.403
File last modification date : UTC 2021-12-19 18:08:18.840
File last modification date (loc : 2021-12-19 19:08:18.840
Writing application : Deputy Dawg and a Nation of Thieves®©
GRACENOTEFILEID : 3CD3M107S5250813U2383C9D9BBBF64F4977D104796D2025C8D8P0
GRACENOTEEXTDATA : GNXDWEcxASRNNbjzjXxqkkNOAe0wlWlwLMBiDA7h2rCWhDSf6cJJIVTYxeaJ29pfP2wsnoknfXjLdAgis0PSsJwcE9ldIHbqXifhiBdOf3P2zQ+kFVGHSHpGJrRoBDrbujUtKrbHcI0I
ENCODED-BY : Winamp 5.56

Audio
Count : 122
Count of stream of this kind : 1
Kind of stream : Audio
Kind of stream : Audio
Stream identifier : 0
Inform : 780 Kbps, 44.1 KHz, 2 channels, FLAC
Format : FLAC
Format/Info : Free Lossless Audio Codec
Format/Url : http://flac.sourceforge.net/
Codec : FLAC
Codec : FLAC
Duration : 124600
Duration : 2mn 4s
Duration : 2mn 4s 600ms
Duration : 2mn 4s
Duration : 00:02:04.600
Bit rate mode : VBR
Bit rate mode : Variable
Bit rate : 779770
Bit rate : 780 Kbps
Channel(s) : 2
Channel(s) : 2 channels
Sampling rate : 44100
Sampling rate : 44.1 KHz
SamplingCount : 5494860
Resolution : 16
Resolution : 16 bits
Replay gain : -5.73
Replay gain : -5.73 dB
Replay gain peak : 0.845306
Stream size : 12144927
Stream size : 11.6 MiB (100%)
Stream size : 12 MiB
Stream size : 12 MiB
Stream size : 11.6 MiB
Stream size : 11.58 MiB
Stream size : 11.6 MiB (100%)
Proportion of this stream : 0.99865
Writing library : reference libFLAC 1.2.1 20070917
Writing library : libFLAC 1.2.1 (UTC 2021-09-17)
Writing library/Name : libFLAC
Writing library/Version : 1.2.1
Writing library/Date : UTC 2021-09-17


Screenshot



ADVERTISING » Download fast « ADVERTISING
No comments for the news
DONATE AVAXHOME:

Donate please!