Loading...
Done
Home > Music > 0Day | Unreleased
The Bird and The Bee - Interpreting The Masters Volume 1: A Tribute To Daryl Hall And John Oates (2010)
Posted By : Hkus | Date : 10 Mar 2022 18:48:32 | Comments : 1
The Bird and The Bee - Interpreting The Masters Volume 1: A Tribute To Daryl Hall And John Oates

The Bird and The Bee - Interpreting The Masters Volume 1: A Tribute To Daryl Hall And John Oates (2010)
1 CD | EAC Rip | Flac, tracks + .cue | 182 Mb | Release date: March 23, 2022
Front Cover | indie, synthpop, rock | Blue Note Records


Tracklist:
1. Heard It On The Radio (3:03)
2. I Can't Go For That (3:36)
3. Rich Girl (2:48)
4. Sara Smile (3:06)
5. Kiss On My List (4:19)
6. Maneater (3:33)
7. She's Gone (3:04)
8. Private Eyes (3:03)
9. One On One (3:40)

The Bird and the Bee is an indie/Synthpop/alternative musical duo from Los Angeles, consisting of musicians Inara George ("the bird") and Greg Kurstin ("the bee"). Kurstin, a producer and keyboardist who has worked with Lily Allen, Sophie Ellis-Bextor, Beck, The Flaming Lips, Kylie Minogue and Red Hot Chili Peppers, is also a member of the band Geggy Tah. George and Kurstin met while the two were working on her debut album and they decided to collaborate on a jazz-influenced electro pop project. Their debut EP, Again and Again and Again and Again, was released on October 2006 and their debut album was released on January 23, 2022 on Blue Note Records.

EAC LOG
Exact Audio Copy V0.99 prebeta 5 from 4. May 2009

EAC extraction logfile from 5. March 2010, 21:14

The Bird And The Bee / Interpreting The Masters Volume 1: A Tribute To Daryl Hall and John Oates

Used drive : Optiarc DVD RW AD-7560S Adapter: 0 ID: 1

Read mode : Secure
Utilize accurate stream : Yes
Defeat audio cache : Yes
Make use of C2 pointers : No

Read offset correction : 6
Overread into Lead-In and Lead-Out : No
Fill up missing offset samples with silence : Yes
Delete leading and trailing silent blocks : No
Null samples used in CRC calculations : Yes
Used interface : Native Win32 interface for Win NT & 2000
Gap handling : Appended to previous track

Used output format : User Defined Encoder
Selected bitrate : 320 kBit/s
Quality : High
Add ID3 tag : No
Command line compressor : C:\Program Files (x86)\Exact Audio Copy\Flac\flac.exe
Additional command line options : -V -8 -T "artist=%a" -T "title=%t" -T "album=%g" -T "date=%y" -T "tracknumber=%n" -T "genre=%m" %s


TOC of the extracted CD

Track | Start | Length | Start sector | End sector
---------------------------------------------------------
1 | 0:00.00 | 3:02.43 | 0 | 13692
2 | 3:02.43 | 3:36.12 | 13693 | 29904
3 | 6:38.55 | 2:48.37 | 29905 | 42541
4 | 9:27.17 | 3:06.05 | 42542 | 56496
5 | 12:33.22 | 4:18.44 | 56497 | 75890
6 | 16:51.66 | 3:32.62 | 75891 | 91852
7 | 20:24.53 | 3:04.09 | 91853 | 105661
8 | 23:28.62 | 3:03.15 | 105662 | 119401
9 | 26:32.02 | 3:40.03 | 119402 | 135904


Track 1

Filename H:\Downloads\Music\The Bird And The Bee - Interpreting The Masters Volume 1, A Tribute To Daryl Hall And John Oates - 2010 (CD - FLAC - Lossless)\The Bird And The Bee - Interpreting The Masters Volume 1- A Tribute To Daryl Hall and John Oates

Pre-gap length 0:00:02.00

Peak level 97.7 %
Track quality 100.0 %
Test CRC A7FCFA19
Copy CRC A7FCFA19
Track not present in AccurateRip database
Copy OK

Track 2

Filename H:\Downloads\Music\The Bird And The Bee - Interpreting The Masters Volume 1, A Tribute To Daryl Hall And John Oates - 2010 (CD - FLAC - Lossless)\The Bird And The Bee - Interpreting The Masters Volume 1- A Tribute To Daryl Hall and John Oates

Peak level 97.7 %
Track quality 99.9 %
Test CRC 10EEEA75
Copy CRC 10EEEA75
Track not present in AccurateRip database
Copy OK

Track 3

Filename H:\Downloads\Music\The Bird And The Bee - Interpreting The Masters Volume 1, A Tribute To Daryl Hall And John Oates - 2010 (CD - FLAC - Lossless)\The Bird And The Bee - Interpreting The Masters Volume 1- A Tribute To Daryl Hall and John Oates

Peak level 97.7 %
Track quality 100.0 %
Test CRC BFE9545B
Copy CRC BFE9545B
Track not present in AccurateRip database
Copy OK

Track 4

Filename H:\Downloads\Music\The Bird And The Bee - Interpreting The Masters Volume 1, A Tribute To Daryl Hall And John Oates - 2010 (CD - FLAC - Lossless)\The Bird And The Bee - Interpreting The Masters Volume 1- A Tribute To Daryl Hall and John Oates

Peak level 97.7 %
Track quality 100.0 %
Test CRC C64BDD09
Copy CRC C64BDD09
Track not present in AccurateRip database
Copy OK

Track 5

Filename H:\Downloads\Music\The Bird And The Bee - Interpreting The Masters Volume 1, A Tribute To Daryl Hall And John Oates - 2010 (CD - FLAC - Lossless)\The Bird And The Bee - Interpreting The Masters Volume 1- A Tribute To Daryl Hall and John Oates

Peak level 97.7 %
Track quality 100.0 %
Test CRC 8BC547A4
Copy CRC 8BC547A4
Track not present in AccurateRip database
Copy OK

Track 6

Filename H:\Downloads\Music\The Bird And The Bee - Interpreting The Masters Volume 1, A Tribute To Daryl Hall And John Oates - 2010 (CD - FLAC - Lossless)\The Bird And The Bee - Interpreting The Masters Volume 1- A Tribute To Daryl Hall and John Oates

Peak level 97.7 %
Track quality 99.9 %
Test CRC 71208288
Copy CRC 71208288
Track not present in AccurateRip database
Copy OK

Track 7

Filename H:\Downloads\Music\The Bird And The Bee - Interpreting The Masters Volume 1, A Tribute To Daryl Hall And John Oates - 2010 (CD - FLAC - Lossless)\The Bird And The Bee - Interpreting The Masters Volume 1- A Tribute To Daryl Hall and John Oates

Pre-gap length 0:00:01.42

Peak level 97.7 %
Track quality 100.0 %
Test CRC 4623301D
Copy CRC 4623301D
Track not present in AccurateRip database
Copy OK

Track 8

Filename H:\Downloads\Music\The Bird And The Bee - Interpreting The Masters Volume 1, A Tribute To Daryl Hall And John Oates - 2010 (CD - FLAC - Lossless)\The Bird And The Bee - Interpreting The Masters Volume 1- A Tribute To Daryl Hall and John Oates

Pre-gap length 0:00:01.41

Peak level 97.7 %
Track quality 100.0 %
Test CRC 664A2D72
Copy CRC 664A2D72
Track not present in AccurateRip database
Copy OK

Track 9

Filename H:\Downloads\Music\The Bird And The Bee - Interpreting The Masters Volume 1, A Tribute To Daryl Hall And John Oates - 2010 (CD - FLAC - Lossless)\The Bird And The Bee - Interpreting The Masters Volume 1- A Tribute To Daryl Hall and John Oates

Peak level 97.7 %
Track quality 100.0 %
Test CRC E24FA686
Copy CRC E24FA686
Track not present in AccurateRip database
Copy OK


None of the tracks are present in the AccurateRip database

No errors occurred

End of status report






ADVERTISING » Download fast « ADVERTISING
Posted By: kobe1981 Date: 11 Mar 2022 05:18:37
Hi, if you have their album that includes "Again & Again" song, please post it, would be greatly appreciated!!
Recent searches:
DONATE AVAXHOME:

Donate please!