Loading...
Done
Home > Music > 0Day | Unreleased
Kaki King - Junior (2010)
Posted By : Hkus | Date : 07 Mar 2022 07:15:18 | Comments : 1
Kaki King - Junior

Kaki King - Junior (2010)
1 CD | EAC Rip | Flac, tracks + cue | 270 Mb
Front Cover | indie, acoustic, instrumental | Release Date: April 13, 2022 | Rounder Records


Tracklist:
01 - The Betrayer.flac
02 - Spit It Back In My Mouth.flac
03 - Everything Has An End, Even Sadness.flac
04 - Falling Day.flac
05 - The Hoopers Of Hudspeth.flac
06 - My Nerves That Committed Suicide.flac
07 - Communist Friends.flac
08 - Hallucinations From My Poisonous German Streets.flac
09 - Death Head.flac
10 - Sloan Shore.flac
11 - Sunnyside.flac

What's it all about?

Taking a new direction from her previous work, King has worked closely with trusted musicians to create an album of ecclectic variety from punk to dance-rock providing inspiration. Occasional interludes are provided by purely instrumental tracks while the rest of the album features heartfelt vocals and originality.

Who's it by?

Kaki King is an alternative singer/songwriter/multi-instrumentalist, and new album Junior sees her joined by drummer Jordan Perison and multi-instrumentalist Dan Brantigan. Her career spans more than the past ten years with critical acclaim and fan admiration aplenty.

As an example...

"My communist friends/They wanna help me/Or so they tell me/Where are you/When I need you/Where are you." - My Communist Friends

What the others say

"King has created a sonically diverse record with songs ranging from upbeat rockers to instrumentals to jangly pop." - Scott Orwig, prefixmag.com

So is it any good?

The first thing you notice about King's latest album is the variety, with everything from upbeat dance to soothing instrumentals perfectly balanced throughout. With an ambient vocal style that isn't always perfect she reminds me of the mid-nineties indie scene, most notably Sleeper and Catatonia, whose female vocalist would front their performances with a unique sound to divide them from the other bands around. The lo-fi recording style often lends an air of delicacy, even to the heavier and more upbeat tracks on the album, which won't be to everyone's taste, but it would be an injustice to not mention the talent and creativity that shines through every track. Kaki King isn't the kind of artist you put on in the background, or someone you would watch live to bounce around to, and Junior is an album that demands your full attention while rewarding you with fantastic alternative rock. Stand out moments include Spit It Back In My Mouth and Communist Friends.

EAC LOG
Exact Audio Copy V0.99 prebeta 5 from 4. May 2009

EAC extraction logfile from 5. March 2010, 18:04

Kaki King / Junior

Used drive : _NEC DVD_RW ND-3540A Adapter: 2 ID: 1

Read mode : Secure
Utilize accurate stream : Yes
Defeat audio cache : Yes
Make use of C2 pointers : No

Read offset correction : 48
Overread into Lead-In and Lead-Out : No
Fill up missing offset samples with silence : Yes
Delete leading and trailing silent blocks : No
Null samples used in CRC calculations : Yes
Used interface : Native Win32 interface for Win NT & 2000
Gap handling : Appended to previous track

Used output format : User Defined Encoder
Selected bitrate : 320 kBit/s
Quality : High
Add ID3 tag : No
Command line compressor : C:\Program Files (x86)\Exact Audio Copy\Flac\flac.exe
Additional command line options : -V -8 -T "artist=%a" -T "title=%t" -T "album=%g" -T "date=%y" -T "tracknumber=%n" -T "genre=%m" %s


TOC of the extracted CD

Track | Start | Length | Start sector | End sector
---------------------------------------------------------
1 | 0:00.00 | 3:54.64 | 0 | 17613
2 | 3:54.64 | 4:00.68 | 17614 | 35681
3 | 7:55.57 | 3:46.05 | 35682 | 52636
4 | 11:41.62 | 5:29.25 | 52637 | 77336
5 | 17:11.12 | 4:50.49 | 77337 | 99135
6 | 22:01.61 | 4:43.24 | 99136 | 120384
7 | 26:45.10 | 4:00.60 | 120385 | 138444
8 | 30:45.70 | 4:24.46 | 138445 | 158290
9 | 35:10.41 | 4:14.32 | 158291 | 177372
10 | 39:24.73 | 3:48.39 | 177373 | 194511
11 | 43:13.37 | 3:33.27 | 194512 | 210513


Track 1

Filename D:\music\Kaki King - 2010 - Junior\01 - The Betrayer.wav

Pre-gap length 0:00:02.00

Peak level 96.6 %
Track quality 100.0 %
Test CRC E54254B7
Copy CRC E54254B7
Accurately ripped (confidence 1) [11eafff3]
Copy OK

Track 2

Filename D:\music\Kaki King - 2010 - Junior\02 - Spit It Back In My Mouth.wav

Peak level 96.6 %
Track quality 100.0 %
Test CRC C88BD993
Copy CRC C88BD993
Accurately ripped (confidence 1) [b8bc5204]
Copy OK

Track 3

Filename D:\music\Kaki King - 2010 - Junior\03 - Everything Has An End, Even Sadness.wav

Peak level 96.6 %
Track quality 100.0 %
Test CRC 457809A5
Copy CRC 457809A5
Accurately ripped (confidence 1) [c5b53cb3]
Copy OK

Track 4

Filename D:\music\Kaki King - 2010 - Junior\04 - Falling Day.wav

Peak level 96.6 %
Track quality 100.0 %
Test CRC A4A7CB9C
Copy CRC A4A7CB9C
Accurately ripped (confidence 1) [6bb774bf]
Copy OK

Track 5

Filename D:\music\Kaki King - 2010 - Junior\05 - The Hoopers Of Hudspeth.wav

Peak level 96.6 %
Track quality 100.0 %
Test CRC 405B34F8
Copy CRC 405B34F8
Accurately ripped (confidence 1) [9b1cd284]
Copy OK

Track 6

Filename D:\music\Kaki King - 2010 - Junior\06 - My Nerves That Committed Suicide.wav

Peak level 96.6 %
Track quality 100.0 %
Test CRC D92AF32E
Copy CRC D92AF32E
Accurately ripped (confidence 1) [5dfdf924]
Copy OK

Track 7

Filename D:\music\Kaki King - 2010 - Junior\07 - Communist Friends.wav

Peak level 96.6 %
Track quality 100.0 %
Test CRC F6FFFC98
Copy CRC F6FFFC98
Accurately ripped (confidence 1) [3b79cdea]
Copy OK

Track 8

Filename D:\music\Kaki King - 2010 - Junior\08 - Hallucinations From My Poisonous German Streets.wav

Pre-gap length 0:00:01.45

Peak level 96.6 %
Track quality 100.0 %
Test CRC A3B6A7EF
Copy CRC A3B6A7EF
Accurately ripped (confidence 1) [83229c6a]
Copy OK

Track 9

Filename D:\music\Kaki King - 2010 - Junior\09 - Death Head.wav

Peak level 96.6 %
Track quality 100.0 %
Test CRC 23F3D592
Copy CRC 23F3D592
Accurately ripped (confidence 1) [d6911df0]
Copy OK

Track 10

Filename D:\music\Kaki King - 2010 - Junior\10 - Sloan Shore.wav

Pre-gap length 0:00:01.09

Peak level 96.6 %
Track quality 100.0 %
Test CRC 34F728EB
Copy CRC 34F728EB
Accurately ripped (confidence 1) [bc654978]
Copy OK

Track 11

Filename D:\music\Kaki King - 2010 - Junior\11 - Sunnyside.wav

Peak level 96.6 %
Track quality 99.9 %
Test CRC F79A6F49
Copy CRC F79A6F49
Accurately ripped (confidence 1) [37b52b30]
Copy OK


All tracks accurately ripped

No errors occurred

End of status report






ADVERTISING » Download fast « ADVERTISING
Posted By: LeHook Date: 07 Mar 2022 14:50:23
Thanks for the intro, Hkus. very good.
Recent searches:
DONATE AVAXHOME:

Donate please!