Loading...
Done
Home > Music > Vocal
Posted By : silentwing | Date : 18 Oct 2021 04:29:45 | Comments : 4 |
Youn Sun Nah - Down By Love (2003)

Youn Sun Nah - Down By Love (2003)
Vocal | FLAC, CUE, LOG | 217MB | Rip by EAC | 1CD
Label: Sony Music | Hotfile + Fileserve

In 2005, Youn Sun Nah became the first woman to win the grand prize at the Antibes International Jazz Festival. As a jazz ensemble, Youn Sun Nah 5 is known for its precision, articulation and creativity. Brisbane Powerhouse has noted. "They are at their best when they find themselves together on stage, testing their creative limits, developing new arrangements, and losing themselves in improvisation."

Tracklist
01. A medida da paixao (3:12)
02. Into dust (4:50)
03. Consider me gone (4:13)
04. Old friends (4:20)
05. Camille's song (4:08)
06. Down by love (3:50)
07. 아름다운 사람 (3:37)
08. Manic depression (3:50)
09. Oblivion (4:30)
10. No me llores mas (4:42)
11. Painted from memory (4:49)

EAC's LOG

Exact Audio Copy V0.99 prebeta 5 from 4. May 2009

EAC extraction logfile from 12. August 2009, 9:32

│¬└▒╝▒ / Down By Love

Used drive : HL-DT-STRW/DVD GCC-4522C Adapter: 0 ID: 0

Read mode : Secure
Utilize accurate stream : Yes
Defeat audio cache : Yes
Make use of C2 pointers : No

Read offset correction : 6
Overread into Lead-In and Lead-Out : No
Fill up missing offset samples with silence : Yes
Delete leading and trailing silent blocks : No
Null samples used in CRC calculations : Yes
Used interface : Native Win32 interface for Win NT & 2000
Gap handling : Appended to previous track

Used output format : User Defined Encoder
Selected bitrate : 128 kBit/s
Quality : High
Add ID3 tag : No
Command line compressor : C:\Program Files\Exact Audio Copy\Flac\flac.exe
Additional command line options : -8 -V -T "ARTIST=%a" -T "TITLE=%t" -T "ALBUM=%g" -T "DATE=%y" -T "TRACKNUMBER=%n" -T "GENRE=%m" -T "COMMENT=EAC FLAC -8" %s

TOC of the extracted CD

Track | Start | Length | Start sector | End sector
---------------------------------------------------------
1 | 0:00.00 | 3:12.01 | 0 | 14400
2 | 3:12.01 | 4:49.74 | 14401 | 36149
3 | 8:02.00 | 4:12.65 | 36150 | 55114
4 | 12:14.65 | 4:20.17 | 55115 | 74631
5 | 16:35.07 | 4:07.63 | 74632 | 93219
6 | 20:42.70 | 3:50.32 | 93220 | 110501
7 | 24:33.27 | 3:36.50 | 110502 | 126751
8 | 28:10.02 | 3:50.05 | 126752 | 144006
9 | 32:00.07 | 4:30.10 | 144007 | 164266
10 | 36:30.17 | 4:42.28 | 164267 | 185444
11 | 41:12.45 | 4:49.19 | 185445 | 207138

Track 1

Filename F:\Music\Nah Youn Sun - Down By Love (2003) [FLAC]\01 - A medida da paixao.wav

Pre-gap length 0:00:02.00

Peak level 93.2 %
Track quality 100.0 %
Test CRC 350CCC45
Copy CRC 350CCC45
Copy OK

Track 2

Filename F:\Music\Nah Youn Sun - Down By Love (2003) [FLAC]\02 - Into dust.wav

Pre-gap length 0:00:02.05

Peak level 89.2 %
Track quality 100.0 %
Test CRC 8B0A94E5
Copy CRC 8B0A94E5
Copy OK

Track 3

Filename F:\Music\Nah Youn Sun - Down By Love (2003) [FLAC]\03 - Consider me gone.wav

Pre-gap length 0:00:03.02

Peak level 95.8 %
Track quality 100.0 %
Test CRC AC3CAED7
Copy CRC AC3CAED7
Copy OK

Track 4

Filename F:\Music\Nah Youn Sun - Down By Love (2003) [FLAC]\04 - Old friends.wav

Pre-gap length 0:00:03.22

Peak level 94.0 %
Track quality 100.0 %
Test CRC 6A2EF96B
Copy CRC 6A2EF96B
Copy OK

Track 5

Filename F:\Music\Nah Youn Sun - Down By Love (2003) [FLAC]\05 - Camille's song.wav

Pre-gap length 0:00:02.66

Peak level 98.0 %
Track quality 100.0 %
Test CRC 4BCD4536
Copy CRC 4BCD4536
Copy OK

Track 6

Filename F:\Music\Nah Youn Sun - Down By Love (2003) [FLAC]\06 - Down by love.wav

Pre-gap length 0:00:04.19

Peak level 99.8 %
Track quality 100.0 %
Test CRC 899521D2
Copy CRC 899521D2
Copy OK

Track 7

Filename F:\Music\Nah Youn Sun - Down By Love (2003) [FLAC]\07 - ╛╞╕º┤┘┐ε ╗τ╢≈.wav

Pre-gap length 0:00:03.62

Peak level 85.5 %
Track quality 100.0 %
Test CRC A6F0585B
Copy CRC A6F0585B
Copy OK

Track 8

Filename F:\Music\Nah Youn Sun - Down By Love (2003) [FLAC]\08 - Manic depression.wav

Pre-gap length 0:00:02.65

Peak level 99.9 %
Track quality 100.0 %
Test CRC 5CD7FE39
Copy CRC 5CD7FE39
Copy OK

Track 9

Filename F:\Music\Nah Youn Sun - Down By Love (2003) [FLAC]\09 - Oblivion.wav

Pre-gap length 0:00:01.67

Peak level 99.9 %
Track quality 100.0 %
Test CRC E8164025
Copy CRC E8164025
Copy OK

Track 10

Filename F:\Music\Nah Youn Sun - Down By Love (2003) [FLAC]\10 - No me llores mas.wav

Pre-gap length 0:00:01.71

Peak level 96.7 %
Track quality 100.0 %
Test CRC 25481C6A
Copy CRC 25481C6A
Copy OK

Track 11

Filename F:\Music\Nah Youn Sun - Down By Love (2003) [FLAC]\11 - Painted from memory.wav

Pre-gap length 0:00:03.31

Peak level 78.9 %
Track quality 99.9 %
Test CRC 9D7ECFC4
Copy CRC 9D7ECFC4
Copy OK

No errors occurred

End of status report


Download

Hotfile.com: Part 1 | Part 2 | Part 3

Mirror Filesevre.com: Part 1 | Part 2 | Part 3

Visit my AH's BLOG for more beautiful albums
ADVERTISING » High Speed Download « ADVERTISING




Posted By: longnguyen_jc Date: 18 Oct 2021 04:34:13
Thanks a lot!I like Youn Sun Nah.
Posted By: retan Date: 18 Oct 2021 11:28:31
thank you!
Posted By: Strength Date: 19 Oct 2021 00:00:25
Thank you so much
Posted By: Richwell Date: 19 Oct 2021 02:03:52
New to me, thanks very much for the introduction!!
Recent searches: