Loading...
Done
Home > Music
VA - The Best of 90s Country (2004)
Posted By : Xmaster | Date : 02 Mar 2022 18:24:00 | Comments : 0

VA - The Best of 90s Country (2004)
3CD | FLAC-IMAGE+CUE +LOG +COVER | 21 Sep. 2004 | 744,46 Мb
Genre: Country | Label: Sbme Special Product


INFO
jpc.de

Tracklist:

CD1:
01. John Anderson - Seminole Wind {4:00}
02. K.T. Oslin - Come Next Monday {3:48}
03. Don Williams - Back in My Younger Days {3:14}
04. Paul Overstreet - Seein' My Falther In Me {3:24}
05. Keith Whitley - It Aint Nothin {4:06}
06. Matraca Berg - Baby Walk On {3:14}
07. Restless Heart - Fast Movin' Train {4:24}
08. The Oak Ridge Boys - Lucky Moon {3:26}
09. Exile - Nobody's Talking {3:35}
10. Ballie And The Boys - Fool Such As I {3:00}

CD2:
01. Clint Black - When My Ship Comes In {3:33}
02. Aaron Tippin - There Ain't Nothin Wrong With The Radio {2:49}
03. Pam Tillis - Let That Pony Run {3:32}
04. BlackHawk - Every Once In a While {3:41}
05. Lorrie Morgan - Something in Red {4:39}
06. Shennandoah - If Bubba Can Dance (I Can Too) {2:52}
07. Radney Foster - Nobody Wins {3:30}
08. Doug Supernaw - I Don't Call Him Daddy {3:48}
09. Lee Roy Parnell - I'm Holding My Own {4:17}
10. Lari White - Now I Know {3:50}

CD3:
01. Clint Black - Like The Rain {4:23}
02. Lorrie Morgan - I Didn't Know My Own Strength {3:06}
03. Mindy McCready - Guys Do It All The Time {3:01}
04. John Anderson - Bend It Until It Breaks {4:07}
05. Jason Sellers - I'm Your Man {3:39}
06. The Tractors - Baby Likes To Rock It {3:53}
07. BR5-49 - Cherokee Boogie {2:30}
08. Ty England - Should've Asked Her Faster {2:44}
09. Sherrie Austin - Never Been Kissed {3:38}
10. The Warren Brothers - She Wants To Rock {2:52}

EAC LOG CD1
Exact Audio Copy V0.99 prebeta 3 from 28. July 2007

EAC extraction logfile from 30. April 2008, 1:05

Various / The Best of 90s Country - Disc 1

Used drive : ATAPI DVD A DH16A3L Adapter: 2 ID: 1

Read mode : Secure
Utilize accurate stream : Yes
Defeat audio cache : Yes
Make use of C2 pointers : No

Read offset correction : 6
Overread into Lead-In and Lead-Out : No
Fill up missing offset samples with silence : Yes
Delete leading and trailing silent blocks : No
Null samples used in CRC calculations : Yes
Used interface : Installed external ASPI interface
Gap handling : Appended to previous track

Used output format : User Defined Encoder
Selected bitrate : 192 kBit/s
Quality : High
Add ID3 tag : No
Command line compressor : C:\Program Files\Exact Audio Copy\Flac\flac.exe
Additional command line options : -8 -A tukey(0.25) -A gauss(0.1875) -b 4096 -V -T "artist=%a" -T "title=%t" -T "album=%g" -T "date=%y" -T "tracknumber=%n" -T "genre=%m" %s --sector-align

TOC of the extracted CD

Track | Start | Length | Start sector | End sector
---------------------------------------------------------
1 | 0:00.00 | 4:00.35 | 0 | 18034
2 | 4:00.35 | 3:47.57 | 18035 | 35116
3 | 7:48.17 | 3:13.63 | 35117 | 49654
4 | 11:02.05 | 3:23.72 | 49655 | 64951
5 | 14:26.02 | 4:06.00 | 64952 | 83401
6 | 18:32.02 | 3:14.03 | 83402 | 97954
7 | 21:46.05 | 4:24.05 | 97955 | 117759
8 | 26:10.10 | 3:26.37 | 117760 | 133246
9 | 29:36.47 | 3:34.55 | 133247 | 149351
10 | 33:11.27 | 3:00.18 | 149352 | 162869

Track 1

Filename E:\New Folder\(01) Seminole Wind - John Anderson - Seminole Wind - John Anderson.wav

Pre-gap length 0:00:02.00

Peak level 99.9 %
Track quality 100.0 %
Test CRC 51D696E6
Copy CRC 51D696E6
Track not present in AccurateRip database
Copy OK

Track 2

Filename E:\New Folder\(02) Come Next Monday - K.T. Oslin - Come Next Monday - K.T. Oslin.wav

Pre-gap length 0:00:01.90

Peak level 99.9 %
Track quality 100.0 %
Test CRC 79C40FEC
Copy CRC 79C40FEC
Track not present in AccurateRip database
Copy OK

Track 3

Filename E:\New Folder\(03) Back in My Younger Days - Don Williams - Back in My Younger Days - Don Williams.wav

Pre-gap length 0:00:01.82

Peak level 99.9 %
Track quality 100.0 %
Test CRC 2A12A883
Copy CRC 2A12A883
Track not present in AccurateRip database
Copy OK

Track 4

Filename E:\New Folder\(04) Seein' My Falther In Me - Paul Overstreet - Seein' My Falther In Me - Paul Overstreet.wav

Pre-gap length 0:00:01.86

Peak level 95.1 %
Track quality 100.0 %
Test CRC 789E506B
Copy CRC 789E506B
Track not present in AccurateRip database
Copy OK

Track 5

Filename E:\New Folder\(05) It Aint Nothin - Keith Whitley - It Aint Nothin - Keith Whitley.wav

Pre-gap length 0:00:01.73

Peak level 100.0 %
Track quality 100.0 %
Test CRC B7C6C017
Copy CRC B7C6C017
Track not present in AccurateRip database
Copy OK

Track 6

Filename E:\New Folder\(06) Baby Walk On - Matraca Berg - Baby Walk On - Matraca Berg.wav

Pre-gap length 0:00:01.73

Peak level 99.9 %
Track quality 100.0 %
Test CRC 3A3BC15A
Copy CRC 3A3BC15A
Track not present in AccurateRip database
Copy OK

Track 7

Filename E:\New Folder\(07) Fast Movin' Train - Restless Heart - Fast Movin' Train - Restless Heart.wav

Pre-gap length 0:00:01.73

Peak level 99.4 %
Track quality 100.0 %
Test CRC 893BB680
Copy CRC 893BB680
Track not present in AccurateRip database
Copy OK

Track 8

Filename E:\New Folder\(08) Lucky Moon - The Oak Ridge Boys - Lucky Moon - The Oak Ridge Boys.wav

Pre-gap length 0:00:01.73

Peak level 99.9 %
Track quality 100.0 %
Test CRC 689C784C
Copy CRC 689C784C
Track not present in AccurateRip database
Copy OK

Track 9

Filename E:\New Folder\(09) Nobody's Talking - Exile - Nobody's Talking - Exile.wav

Pre-gap length 0:00:01.73

Peak level 99.7 %
Track quality 100.0 %
Test CRC F1A30269
Copy CRC F1A30269
Track not present in AccurateRip database
Copy OK

Track 10

Filename E:\New Folder\(10) Fool Such As I - Ballie And The Boys - Fool Such As I - Ballie And The Boys.wav

Pre-gap length 0:00:01.86

Peak level 99.6 %
Track quality 100.0 %
Test CRC 4A1A0BFB
Copy CRC 4A1A0BFB
Track not present in AccurateRip database
Copy OK

None of the tracks are present in the AccurateRip database

No errors occurred

End of status report


EAC LOG CD2
Exact Audio Copy V0.99 prebeta 3 from 28. July 2007

EAC extraction logfile from 30. April 2008, 1:26

Various / The Best of 90s Country - Disc 2

Used drive : ATAPI DVD A DH16A3L Adapter: 2 ID: 1

Read mode : Secure
Utilize accurate stream : Yes
Defeat audio cache : Yes
Make use of C2 pointers : No

Read offset correction : 6
Overread into Lead-In and Lead-Out : No
Fill up missing offset samples with silence : Yes
Delete leading and trailing silent blocks : No
Null samples used in CRC calculations : Yes
Used interface : Installed external ASPI interface
Gap handling : Appended to previous track

Used output format : User Defined Encoder
Selected bitrate : 192 kBit/s
Quality : High
Add ID3 tag : No
Command line compressor : C:\Program Files\Exact Audio Copy\Flac\flac.exe
Additional command line options : -8 -A tukey(0.25) -A gauss(0.1875) -b 4096 -V -T "artist=%a" -T "title=%t" -T "album=%g" -T "date=%y" -T "tracknumber=%n" -T "genre=%m" %s --sector-align

TOC of the extracted CD

Track | Start | Length | Start sector | End sector
---------------------------------------------------------
1 | 0:00.00 | 3:33.27 | 0 | 16001
2 | 3:33.27 | 2:48.55 | 16002 | 28656
3 | 6:22.07 | 3:31.60 | 28657 | 44541
4 | 9:53.67 | 3:40.38 | 44542 | 61079
5 | 13:34.30 | 4:39.37 | 61080 | 82041
6 | 18:13.67 | 2:51.55 | 82042 | 94921
7 | 21:05.47 | 3:30.20 | 94922 | 110691
8 | 24:35.67 | 3:47.50 | 110692 | 127766
9 | 28:23.42 | 4:17.13 | 127767 | 147054
10 | 32:40.55 | 3:50.30 | 147055 | 164334

Track 1

Filename E:\New Folder\(01) When My Ship Comes In - Clint Black - When My Ship Comes In - Clint Black.wav

Pre-gap length 0:00:02.00

Peak level 99.9 %
Track quality 100.0 %
Test CRC 6C3C64AA
Copy CRC 6C3C64AA
Track not present in AccurateRip database
Copy OK

Track 2

Filename E:\New Folder\(02) There Ain't Nothin Wrong With The Radio - Aaron Tippin - There Ain't Nothin Wrong With The Radio - Aaron Tippin.wav

Pre-gap length 0:00:00.82

Peak level 99.9 %
Track quality 100.0 %
Test CRC AA75F7F9
Copy CRC AA75F7F9
Track not present in AccurateRip database
Copy OK

Track 3

Filename E:\New Folder\(03) Let That Pony Run - Pam Tillis - Let That Pony Run - Pam Tillis.wav

Pre-gap length 0:00:02.73

Peak level 100.0 %
Track quality 100.0 %
Test CRC B7430DE9
Copy CRC B7430DE9
Track not present in AccurateRip database
Copy OK

Track 4

Filename E:\New Folder\(04) Every Once In a While - BlackHawk - Every Once In a While - BlackHawk.wav

Pre-gap length 0:00:01.40

Peak level 99.9 %
Track quality 99.9 %
Test CRC AC0C89CA
Copy CRC AC0C89CA
Track not present in AccurateRip database
Copy OK

Track 5

Filename E:\New Folder\(05) Something in Red - Lorrie Morgan - Something in Red - Lorrie Morgan.wav

Pre-gap length 0:00:01.26

Peak level 99.9 %
Track quality 100.0 %
Test CRC 8E9C7D60
Copy CRC 8E9C7D60
Track not present in AccurateRip database
Copy OK

Track 6

Filename E:\New Folder\(06) If Bubba Can Dance (I Can Too) - Shennandoah - If Bubba Can Dance (I Can Too) - Shennandoah.wav

Pre-gap length 0:00:01.69

Peak level 99.9 %
Track quality 100.0 %
Test CRC 90A1209B
Copy CRC 90A1209B
Track not present in AccurateRip database
Copy OK

Track 7

Filename E:\New Folder\(07) Nobody Wins - Radney Foster - Nobody Wins - Radney Foster.wav

Pre-gap length 0:00:00.73

Peak level 99.9 %
Track quality 100.0 %
Test CRC 9328AF28
Copy CRC 9328AF28
Track not present in AccurateRip database
Copy OK

Track 8

Filename E:\New Folder\(08) I Don't Call Him Daddy - Doug Supernaw - I Don't Call Him Daddy - Doug Supernaw.wav

Pre-gap length 0:00:01.36

Peak level 99.9 %
Track quality 100.0 %
Test CRC 3BBF468E
Copy CRC 3BBF468E
Track not present in AccurateRip database
Copy OK

Track 9

Filename E:\New Folder\(09) I'm Holding My Own - Lee Roy Parnell - I'm Holding My Own - Lee Roy Parnell.wav

Pre-gap length 0:00:01.26

Peak level 99.9 %
Track quality 100.0 %
Test CRC 338C7DA9
Copy CRC 338C7DA9
Track not present in AccurateRip database
Copy OK

Track 10

Filename E:\New Folder\(10) Now I Know - Lari White - Now I Know - Lari White.wav

Pre-gap length 0:00:01.53

Peak level 99.9 %
Track quality 100.0 %
Test CRC 1E44F76A
Copy CRC 1E44F76A
Track not present in AccurateRip database
Copy OK

None of the tracks are present in the AccurateRip database

No errors occurred

End of status report


EAC LOG CD3
Exact Audio Copy V0.99 prebeta 3 from 28. July 2007

EAC extraction logfile from 30. April 2008, 2:00

Various / The Best of 90s Country - Disc 3

Used drive : ATAPI DVD A DH16A3L Adapter: 2 ID: 1

Read mode : Secure
Utilize accurate stream : Yes
Defeat audio cache : Yes
Make use of C2 pointers : No

Read offset correction : 6
Overread into Lead-In and Lead-Out : No
Fill up missing offset samples with silence : Yes
Delete leading and trailing silent blocks : No
Null samples used in CRC calculations : Yes
Used interface : Installed external ASPI interface
Gap handling : Appended to previous track

Used output format : User Defined Encoder
Selected bitrate : 192 kBit/s
Quality : High
Add ID3 tag : No
Command line compressor : C:\Program Files\Exact Audio Copy\Flac\flac.exe
Additional command line options : -8 -A tukey(0.25) -A gauss(0.1875) -b 4096 -V -T "artist=%a" -T "title=%t" -T "album=%g" -T "date=%y" -T "tracknumber=%n" -T "genre=%m" %s --sector-align

TOC of the extracted CD

Track | Start | Length | Start sector | End sector
---------------------------------------------------------
1 | 0:00.00 | 4:22.55 | 0 | 19704
2 | 4:22.55 | 3:05.67 | 19705 | 33646
3 | 7:28.47 | 3:01.08 | 33647 | 47229
4 | 10:29.55 | 4:06.57 | 47230 | 65736
5 | 14:36.37 | 3:38.65 | 65737 | 82151
6 | 18:15.27 | 3:52.48 | 82152 | 99599
7 | 22:08.00 | 2:29.47 | 99600 | 110821
8 | 24:37.47 | 2:43.60 | 110822 | 123106
9 | 27:21.32 | 3:37.63 | 123107 | 139444
10 | 30:59.20 | 2:52.35 | 139445 | 152379

Track 1

Filename E:\New Folder\(01) Like The Rain - Clint Black - Like The Rain - Clint Black.wav

Pre-gap length 0:00:02.00

Peak level 98.5 %
Track quality 100.0 %
Test CRC 03E5485E
Copy CRC 03E5485E
Track not present in AccurateRip database
Copy OK

Track 2

Filename E:\New Folder\(02) I Didn't Know My Own Strength - Lorrie Morgan - I Didn't Know My Own Strength - Lorrie Morgan.wav

Pre-gap length 0:00:01.73

Peak level 100.0 %
Track quality 100.0 %
Test CRC 70416445
Copy CRC 70416445
Track not present in AccurateRip database
Copy OK

Track 3

Filename E:\New Folder\(03) Guys Do It All The Time - Mindy McCready - Guys Do It All The Time - Mindy McCready.wav

Pre-gap length 0:00:01.73

Peak level 98.4 %
Track quality 100.0 %
Test CRC 6D9D46BB
Copy CRC 6D9D46BB
Track not present in AccurateRip database
Copy OK

Track 4

Filename E:\New Folder\(04) Bend It Until It Breaks - John Anderson - Bend It Until It Breaks - John Anderson.wav

Pre-gap length 0:00:01.73

Peak level 99.6 %
Track quality 100.0 %
Test CRC 9C2A910E
Copy CRC 9C2A910E
Track not present in AccurateRip database
Copy OK

Track 5

Filename E:\New Folder\(05) I'm Your Man - Jason Sellers - I'm Your Man - Jason Sellers.wav

Pre-gap length 0:00:01.73

Peak level 99.6 %
Track quality 100.0 %
Test CRC 8F95688C
Copy CRC 8F95688C
Track not present in AccurateRip database
Copy OK

Track 6

Filename E:\New Folder\(06) Baby Likes To Rock It - The Tractors - Baby Likes To Rock It - The Tractors.wav

Pre-gap length 0:00:01.73

Peak level 100.0 %
Track quality 100.0 %
Test CRC FA5AE812
Copy CRC FA5AE812
Track not present in AccurateRip database
Copy OK

Track 7

Filename E:\New Folder\(07) Cherokee Boogie - BR5-49 - Cherokee Boogie - BR5-49.wav

Pre-gap length 0:00:01.73

Peak level 100.0 %
Track quality 100.0 %
Test CRC DB89C3EA
Copy CRC DB89C3EA
Track not present in AccurateRip database
Copy OK

Track 8

Filename E:\New Folder\(08) Should've Asked Her Faster - Ty England - Should've Asked Her Faster - Ty England.wav

Pre-gap length 0:00:01.73

Peak level 100.0 %
Track quality 100.0 %
Test CRC 39B03052
Copy CRC 39B03052
Track not present in AccurateRip database
Copy OK

Track 9

Filename E:\New Folder\(09) Never Been Kissed - Sherrie Austin - Never Been Kissed - Sherrie Austin.wav

Pre-gap length 0:00:01.73

Peak level 100.0 %
Track quality 99.9 %
Test CRC 8A495A64
Copy CRC 8A495A64
Track not present in AccurateRip database
Copy OK

Track 10

Filename E:\New Folder\(10) She Wants To Rock - The Warren Brothers - She Wants To Rock - The Warren Brothers.wav

Pre-gap length 0:00:01.73

Peak level 100.0 %
Track quality 100.0 %
Test CRC 464E3B40
Copy CRC 464E3B40
Track not present in AccurateRip database
Copy OK

None of the tracks are present in the AccurateRip database

No errors occurred

End of status report


All thanks for original release going to -sahav-

ADVERTISING » Download fast « ADVERTISING
No comments for the news
Recent searches:
DONATE AVAXHOME:

Donate please!