Loading...
Done
Home > Music
The B-52's - Wild Planet (1980)
Posted By : musicjunky | Date : 27 Jan 2022 19:15:11 | Comments : 4

The B-52's - Wild Planet (1980)
EAC Rip | FLAC + Log + Cue | Scans | 219 MB | HF + RS | 5% recovery
Label: Warner Bros. 3471-2 | Genre: Rock / New Wave

Conventional wisdom has it that all the B-52's' subsequent releases are highly inferior to their debut. While Wild Planet is not the rarefied wonder their first platter is, it's still darn good. The songs here are generally faster, tighter, and punchier than previously, though production values are not as wonderfully quirky and detailed; fewer songs here are as over-the-top crazy as the first album's "Rock Lobster" or "52 Girls." These formless selections continue to exhibit a cunning mix of girl group, garage band, surf, and television theme song influences, all propelled along by an itchy dance beat. "Give Me Back My Man" allows Cindy Wilson a unique opportunity to croon a broad, expressive melodic line. Fred Schneider parades his inimitably nervous vocals on chucklesome ditties like "Quiche Lorraine" and "Strobe Light." The best songs here are "Private Idaho," a wonderfully jittery number that employs a variant on the famous melodic snippet from the Twilight Zone theme music, and "Devil in My Car," a delightfully loopy hoot that lays the craziness on very thickly. Performances and sound quality are fine. This album is well worth hearing and recommended.

This is not my rip. I want to thank the original ripper and uploader

Tracks
01 - Party Out Of Bounds
02 - Dirty Back Road
03 - Runnin' Around
04 - Give Me Back My Man
05 - Private Idaho
06 - Devil In My Car
07 - Quiche Lorraine
08 - Strobe Light
09 - 53 Miles West Of Venus

EAC LOG
Exact Audio Copy V0.99 prebeta 4 from 23. January 2008

EAC extraction logfile from 2. January 2009, 22:14

The B-52's / Wild Planet

Used drive : SlimtypeDVD A DS8A2S Adapter: 1 ID: 0

Read mode : Secure
Utilize accurate stream : Yes
Defeat audio cache : No
Make use of C2 pointers : No

Read offset correction : 6
Overread into Lead-In and Lead-Out : No
Fill up missing offset samples with silence : Yes
Delete leading and trailing silent blocks : No
Null samples used in CRC calculations : No
Used interface : Native Win32 interface for Win NT & 2000
Gap handling : Appended to previous track

Used output format : User Defined Encoder
Selected bitrate : 320 kBit/s
Quality : High
Add ID3 tag : No
Command line compressor : C:\Program Files\Exact Audio Copy\Flac\flac.exe
Additional command line options : -4 -T "artist=%a" -T "title=%t" -T "album=%g" -T "date=%y" -T "tracknumber=%n" -T "genre=%m" %s


TOC of the extracted CD

Track | Start | Length | Start sector | End sector
---------------------------------------------------------
1 | 0:00.33 | 3:21.45 | 33 | 15152
2 | 3:22.03 | 3:21.25 | 15153 | 30252
3 | 6:43.28 | 3:10.07 | 30253 | 44509
4 | 9:53.35 | 4:01.63 | 44510 | 62647
5 | 13:55.23 | 3:38.00 | 62648 | 78997
6 | 17:33.23 | 4:29.27 | 78998 | 99199
7 | 22:02.50 | 3:58.50 | 99200 | 117099
8 | 26:01.25 | 4:01.30 | 117100 | 135204
9 | 30:02.55 | 4:53.35 | 135205 | 157214


Track 1

Filename D:\sys\Music ripped\The B-52's\Wild Planet\01 Party Out Of Bounds.wav

Pre-gap length 0:00:02.33

Peak level 81.0 %
Track quality 100.0 %
Copy CRC C0C5D9BB
Accurately ripped (confidence 2) [9E434B2A]
Copy OK

Track 2

Filename D:\sys\Music ripped\The B-52's\Wild Planet\02 Dirty Back Road.wav

Peak level 67.0 %
Track quality 100.0 %
Copy CRC 7DB96A3C
Accurately ripped (confidence 2) [2126C682]
Copy OK

Track 3

Filename D:\sys\Music ripped\The B-52's\Wild Planet\03 Runnin' Around.wav

Peak level 78.6 %
Track quality 100.0 %
Copy CRC 728AFE32
Accurately ripped (confidence 2) [6444F97B]
Copy OK

Track 4

Filename D:\sys\Music ripped\The B-52's\Wild Planet\04 Give Me Back My Man.wav

Peak level 74.8 %
Track quality 100.0 %
Copy CRC 33C60C2E
Accurately ripped (confidence 2) [3317A1EF]
Copy OK

Track 5

Filename D:\sys\Music ripped\The B-52's\Wild Planet\05 Private Idaho.wav

Pre-gap length 0:00:00.60

Peak level 66.6 %
Track quality 100.0 %
Copy CRC 9DEA1FEC
Accurately ripped (confidence 2) [378510A7]
Copy OK

Track 6

Filename D:\sys\Music ripped\The B-52's\Wild Planet\06 Devil In My Car.wav

Pre-gap length 0:00:01.60

Peak level 79.1 %
Track quality 100.0 %
Copy CRC 26B0E39C
Accurately ripped (confidence 2) [57382FC2]
Copy OK

Track 7

Filename D:\sys\Music ripped\The B-52's\Wild Planet\07 Quiche Lorraine.wav

Pre-gap length 0:00:00.60

Peak level 86.0 %
Track quality 100.0 %
Copy CRC 2021469E
Accurately ripped (confidence 2) [7FD65851]
Copy OK

Track 8

Filename D:\sys\Music ripped\The B-52's\Wild Planet\08 Strobe Light.wav

Peak level 74.7 %
Track quality 99.9 %
Copy CRC 531D1470
Accurately ripped (confidence 2) [504F4B2C]
Copy OK

Track 9

Filename D:\sys\Music ripped\The B-52's\Wild Planet\09 53 Miles West Of Venus.wav

Pre-gap length 0:00:00.30

Peak level 81.5 %
Track quality 100.0 %
Copy CRC 7DDE58A8
Accurately ripped (confidence 2) [AD02C1CA]
Copy OK


All tracks accurately ripped

No errors occurred

End of status report


Hotfile Links



Rapid Share Links



Links Are Interchangeable


Password: musicjunky
ADVERTISING » Download fast « ADVERTISING
Posted By: fantazy Date: 27 Jan 2022 20:07:51
Thanks ! B52 OMG! old music ^__^
Posted By: oldermonster Date: 27 Jan 2022 23:11:13
Спасибо.
Posted By: lucax33 Date: 28 Jan 2022 07:49:08
Thanks!. Great, great upload.
Posted By: jorgeluiz Date: 28 Jan 2022 10:29:38
thanks so much again musicjunky, very cool! :-)
Recent searches:
DONATE AVAXHOME:

Donate please!