Loading...
Done
Home > Music
The B-52's - Whammy! (1983)
Posted By : musicjunky | Date : 26 Jan 2022 01:57:12 | Comments : 3

The B-52's - Whammy! (1983)
EAC Rip | FLAC + Log + Cue | Scans | 273 MB | HF + RS | 5% recovery
Label: Island 842 445-2 | Genre: Rock / New Wave

Following the botched collaboration with David Byrne on Mesopotamia, the B-52's decided to craft their fourth album as a return to the pop-culture funk explosion of their debut. Smartly, they decided to not simply replicate the skewed Southern funk of that album, choosing to update their signature sound with drum machines and new wave synths. As a result, it now sounds a little forced and dated, but the best moments -- "Legal Tender," "Whammy Kiss," "Butterbean," "Song for a Future Generation" -- rank as B-52's classics, and the entire record is certainly entertaining, even with its faults. [Whammy! was originally released with a cover of Yoko Ono's "Don't Worry." When the time came to reissue the CD in 1989, the group ran into copyright troubles with Ono and the song was pulled, replaced by "Moon 83."]

This is not my rip. I want to thank the original ripper and uploader

Tracks:
01 - Legal Tender
02 - Whammy Kiss
03 - Song For A Future Generation
04 - Butterbean
05 - Trism
06 - Queen Of Las Vegas
07 - Moon 83
08 - Big Bird
09 - Work That Skirt

EAC LOG
Exact Audio Copy V0.99 prebeta 4 from 23. January 2008

EAC extraction logfile from 1. June 2008, 13:13

The B-52's / Whammy

Used drive : CD-RW CDR-7S52 Adapter: 0 ID: 0

Read mode : Secure
Utilize accurate stream : Yes
Defeat audio cache : Yes
Make use of C2 pointers : No

Read offset correction : 6
Overread into Lead-In and Lead-Out : No
Fill up missing offset samples with silence : Yes
Delete leading and trailing silent blocks : No
Null samples used in CRC calculations : Yes
Used interface : Native Win32 interface for Win NT & 2000
Gap handling : Appended to previous track

Used output format : User Defined Encoder
Selected bitrate : 768 kBit/s
Quality : High
Add ID3 tag : No
Command line compressor : E:\Program Files\Exact Audio Copy\FLAC\FLAC.EXE
Additional command line options : -8 -V -T "ARTIST=%a" -T "TITLE=%t" -T "ALBUM=%g" -T "DATE=%y" -T "TRACKNUMBER=%n" -T "TOTALTRACKS=%x" -T "GENRE=%m" -T "ALBUMARTIST=%v" -T "ALBUM ARTIST=%v" -T "COMMENT=EAC V0.99 prebeta 4, Secure Mode, Test & Copy, Accurat


TOC of the extracted CD

Track | Start | Length | Start sector | End sector
---------------------------------------------------------
1 | 0:00.32 | 3:41.05 | 32 | 16611
2 | 3:41.37 | 5:21.53 | 16612 | 40739
3 | 9:03.15 | 3:58.70 | 40740 | 58659
4 | 13:02.10 | 4:17.60 | 58660 | 77994
5 | 17:19.70 | 3:24.05 | 77995 | 93299
6 | 20:44.00 | 4:36.57 | 93300 | 114056
7 | 25:20.57 | 4:01.63 | 114057 | 132194
8 | 29:22.45 | 4:13.72 | 132195 | 151241
9 | 33:36.42 | 3:51.28 | 151242 | 168594


Track 1

Filename Y:\Pedro\01 - Legal Tender.wav

Pre-gap length 0:00:02.42

Peak level 85.3 %
Track quality 100.0 %
Test CRC 2C93A3D6
Copy CRC 2C93A3D6
Accurately ripped (confidence 1) [A513724D]
Copy OK

Track 2

Filename Y:\Pedro\02 - Whammy Kiss.wav

Peak level 88.9 %
Track quality 100.0 %
Test CRC 5C451805
Copy CRC 5C451805
Accurately ripped (confidence 1) [5079B9E7]
Copy OK

Track 3

Filename Y:\Pedro\03 - Song For A Future Generation.wav

Peak level 80.9 %
Track quality 100.0 %
Test CRC 64D1F175
Copy CRC 64D1F175
Accurately ripped (confidence 1) [11707A9A]
Copy OK

Track 4

Filename Y:\Pedro\04 - Butterbean.wav

Peak level 81.9 %
Track quality 100.0 %
Test CRC 93B2AD2C
Copy CRC 93B2AD2C
Accurately ripped (confidence 1) [BD965355]
Copy OK

Track 5

Filename Y:\Pedro\05 - Trism.wav

Pre-gap length 0:00:01.66

Peak level 82.5 %
Track quality 100.0 %
Test CRC 3D046A45
Copy CRC 3D046A45
Accurately ripped (confidence 1) [796000E6]
Copy OK

Track 6

Filename Y:\Pedro\06 - Queen Of Las Vegas.wav

Peak level 88.2 %
Track quality 100.0 %
Test CRC 09EF6380
Copy CRC 09EF6380
Accurately ripped (confidence 1) [5BA57AED]
Copy OK

Track 7

Filename Y:\Pedro\07 - Moon 83.wav

Pre-gap length 0:00:01.49

Peak level 91.8 %
Track quality 100.0 %
Test CRC 795419E3
Copy CRC 795419E3
Accurately ripped (confidence 1) [84B58115]
Copy OK

Track 8

Filename Y:\Pedro\08 - Big Bird.wav

Peak level 79.6 %
Track quality 100.0 %
Test CRC 1865728C
Copy CRC 1865728C
Accurately ripped (confidence 1) [54517E8D]
Copy OK

Track 9

Filename Y:\Pedro\09 - Work That Skirt.wav

Peak level 79.5 %
Track quality 100.0 %
Test CRC 60F0B6DB
Copy CRC 60F0B6DB
Accurately ripped (confidence 1) [DE710995]
Copy OK


All tracks accurately ripped

No errors occurred

End of status report


Hotfile Links



Rapid Share Links



Links Are Interchangeable


Password: musicjunky
ADVERTISING » Download fast « ADVERTISING
Posted By: jorgeluiz Date: 26 Jan 2022 10:56:58
weehoo..very very nice, thanks so much. :-)
Posted By: oldermonster Date: 26 Jan 2022 23:01:46
Спасибо.
Posted By: lucax33 Date: 28 Jan 2022 14:29:26
Thanks again! Don't stop the music!!!
Recent searches:
DONATE AVAXHOME:

Donate please!