Loading...
Done
Home > Music
The B-52's - The B-52's (1979)
Posted By : musicjunky | Date : 28 Jan 2022 04:44:02 | Comments : 0

The B-52's - The B-52's (1979)
EAC AccurateRip | FLAC + Log + Cue | Scans | 274 MB | HF + RS | 5% recovery
Label: Warner Bros. 3355 | Genre: Rock / New Wave

Even in the weird, quirky world of new wave and post-punk in the late '70s, the B-52's' eponymous debut stood out as an original. Unabashed kitsch mavens at a time when their peers were either vulgar or stylish, the Athens quintet celebrated all the silliest aspects of pre-Beatles pop culture -- bad hairdos, sci-fi nightmares, dance crazes, pastels, and anything else that sprung into their minds -- to a skewed fusion of pop, surf, avant-garde, amateurish punk, and white funk. On paper, it sounds like a cerebral exercise, but it played like a party. The jerky, angular funk was irresistibly danceable, winning over listeners dubious of Kate Pierson and Cindy Wilson's high-pitched, shrill close harmonies and Fred Schneider's campy, flamboyant vocalizing, pitched halfway between singing and speaking. It's all great fun, but it wouldn't have resonated throughout the years if the group hadn't written such incredibly infectious, memorable tunes as "Planet Claire," "Dance This Mess Around," and, of course, their signature tune, "Rock Lobster." These songs illustrated that the B-52's' adoration of camp culture wasn't simply affectation -- it was a world view capable of turning out brilliant pop singles and, in turn, influencing mainstream pop culture. It's difficult to imagine the endless kitschy retro fads of the '80s and '90s without the B-52's pointing the way, but The B-52's isn't simply an historic artifact -- it's a hell of a good time.

This is not my rip. I want to thank the original ripper and uploader

Tracks:
01 - Planet Claire
02 - 52 Girls
03 - Dance This Mess Around
04 - Rock Lobster
05 - Lava
06 - There's A Moon In The Sky (Called The Moon)
07 - Hero Worship
08 - 6060-842
09 - Downtown

EAC LOG
Exact Audio Copy V0.99 prebeta 4 from 23. January 2008

EAC extraction logfile from 2. January 2009, 22:01

The B-52's / The B-52's

Used drive : SlimtypeDVD A DS8A2S Adapter: 1 ID: 0

Read mode : Secure
Utilize accurate stream : Yes
Defeat audio cache : No
Make use of C2 pointers : No

Read offset correction : 6
Overread into Lead-In and Lead-Out : No
Fill up missing offset samples with silence : Yes
Delete leading and trailing silent blocks : No
Null samples used in CRC calculations : No
Used interface : Native Win32 interface for Win NT & 2000
Gap handling : Appended to previous track

Used output format : User Defined Encoder
Selected bitrate : 320 kBit/s
Quality : High
Add ID3 tag : No
Command line compressor : C:\Program Files\Exact Audio Copy\Flac\flac.exe
Additional command line options : -4 -T "artist=%a" -T "title=%t" -T "album=%g" -T "date=%y" -T "tracknumber=%n" -T "genre=%m" %s


TOC of the extracted CD

Track | Start | Length | Start sector | End sector
---------------------------------------------------------
1 | 0:00.33 | 4:36.62 | 33 | 20794
2 | 4:37.20 | 3:35.48 | 20795 | 36967
3 | 8:12.68 | 4:37.05 | 36968 | 57747
4 | 12:49.73 | 6:51.22 | 57748 | 88594
5 | 19:41.20 | 4:55.60 | 88595 | 110779
6 | 24:37.05 | 4:58.18 | 110780 | 133147
7 | 29:35.23 | 4:08.57 | 133148 | 151804
8 | 33:44.05 | 2:52.60 | 151805 | 164764
9 | 36:36.65 | 2:57.18 | 164765 | 178057


Track 1

Filename D:\sys\Music ripped\The B-52's\The B-52's\01 Planet Claire.wav

Pre-gap length 0:00:02.33

Peak level 74.5 %
Track quality 100.0 %
Copy CRC 6187C04F
Accurately ripped (confidence 6) [C034D35E]
Copy OK

Track 2

Filename D:\sys\Music ripped\The B-52's\The B-52's\02 52 Girls.wav

Pre-gap length 0:00:01.27

Peak level 86.3 %
Track quality 100.0 %
Copy CRC 98DF9082
Accurately ripped (confidence 6) [AE8C25BF]
Copy OK

Track 3

Filename D:\sys\Music ripped\The B-52's\The B-52's\03 Dance This Mess Around.wav

Pre-gap length 0:00:00.13

Peak level 82.5 %
Track quality 100.0 %
Copy CRC 3C2E83D7
Accurately ripped (confidence 6) [78045BF7]
Copy OK

Track 4

Filename D:\sys\Music ripped\The B-52's\The B-52's\04 Rock Lobster.wav

Pre-gap length 0:00:00.13

Peak level 74.1 %
Track quality 100.0 %
Copy CRC F0D1C2BB
Accurately ripped (confidence 6) [F9DAE356]
Copy OK

Track 5

Filename D:\sys\Music ripped\The B-52's\The B-52's\05 Lava.wav

Pre-gap length 0:00:01.40

Peak level 73.5 %
Track quality 100.0 %
Copy CRC BC52EDFE
Accurately ripped (confidence 6) [783EA2AA]
Copy OK

Track 6

Filename D:\sys\Music ripped\The B-52's\The B-52's\06 There's A Moon In The Sky (Called The Moon).wav

Pre-gap length 0:00:01.15

Peak level 71.7 %
Track quality 100.0 %
Copy CRC C1391401
Accurately ripped (confidence 6) [543CE8ED]
Copy OK

Track 7

Filename D:\sys\Music ripped\The B-52's\The B-52's\07 Hero Worship.wav

Pre-gap length 0:00:02.15

Peak level 63.0 %
Track quality 100.0 %
Copy CRC 36ACB49A
Accurately ripped (confidence 6) [27666A15]
Copy OK

Track 8

Filename D:\sys\Music ripped\The B-52's\The B-52's\08 6060-842.wav

Pre-gap length 0:00:00.27

Peak level 74.8 %
Track quality 100.0 %
Copy CRC 1BF5D408
Accurately ripped (confidence 6) [CC225CE9]
Copy OK

Track 9

Filename D:\sys\Music ripped\The B-52's\The B-52's\09 Downtown.wav

Pre-gap length 0:00:03.45

Peak level 62.9 %
Track quality 100.0 %
Copy CRC 0BB45EDA
Accurately ripped (confidence 6) [4E3DDAF8]
Copy OK


All tracks accurately ripped

No errors occurred

End of status report


Hotfile Links



Rapid Share Links



Links Are Interchangeable


Password: musicjunky

ADVERTISING » Download fast « ADVERTISING
No comments for the news
Recent searches:
DONATE AVAXHOME:

Donate please!