Loading...
Done
Home > Music
Stevie Ray Vaughan - The Real Deal: Greatest Hits Volume 2 (1999)
Posted By : musicjunky | Date : 26 Jan 2022 16:23:21 | Comments : 5

Stevie Ray Vaughan - The Real Deal: Greatest Hits Volume 2 (1999)
EAC AccurateRip | FLAC + Log + Cue | Scans | 470 MB | HF + RS | 5% recovery
Label: Epic EK 65873 | Genre: Rock

Stevie Ray Vaughan was one of a kind. Even his peers knew so. So many times, people like Eric Clapton and Buddy Guy have spoken publicly about Stevie Ray's gift, and it was a gift. His guitar leads would jet off into the stratosphere, return, reload, and blast off again, time after time. The Real Deal is exactly what it says it is. This is a 16-song set that doesn't let up, not one time. Throughout classic Stevie Ray tracks, like the full-speed-ahead instrumental "Scuttle Buttin'," "Love Struck Baby," and "Look at Little Sister," Stevie and the Double Trouble band consistently stand and deliver. Live tracks include the funky Stevie Wonder-penned "Superstition," Vaughan favorite "Willie the Wimp," "Shake for Me," and the blues fire of "Leave My Girl Alone." It's Stevie Ray unleashed, live and without a net. One of the biggest crowd-pleasers is included here, Stevie's retelling of the Jimi Hendrix standard "Voodoo Chile (Slight Return)." Awesome. "Lenny" shows off Stevie's jazz influence with subtle phrasing that evokes memories of "Little Wing" or the coda on "Layla." No more perfect closer could have been chosen for this set than the solo acoustic number "Life by the Drop." It's a touching tale of two old friends who become estranged and then rekindle their old friendship. With The Real Deal, we are all in that same boat. Rekindling a friendship that never really died, but may have been forgotten by some for a while. The friendship we all have with the heart and soul of Stevie Ray Vaughan, his music.

Tracks:
01 - Love Struck Baby
02 - Ain't Gone 'N' Give Up On Love
03 - Scuttle Buttin'
04 - Wall Of Denial
05 - Lenny
06 - Superstition (live)
07 - Empty Arms
08 - Riviera Paradise
09 - Look At Little Sister
10 - Willie The Wimp (live)
11 - Pipeline
12 - Shake For Me (Live)
13 - Leave My Girl Alone (Live)
14 - Telephone Song
15 - Voodoo Chile (Slight Return)
16 - Life By The Drop

EAC LOG
Exact Audio Copy V0.99 prebeta 5 from 4. May 2009

EAC extraction logfile from 18. January 2010, 15:54

Stevie Ray Vaughan / The Real Deal: Greatest Hits 2

Used drive : Memorex 52MAXX 3252AJ1v2 Adapter: 0 ID: 0

Read mode : Secure
Utilize accurate stream : Yes
Defeat audio cache : Yes
Make use of C2 pointers : No

Read offset correction : 6
Overread into Lead-In and Lead-Out : No
Fill up missing offset samples with silence : Yes
Delete leading and trailing silent blocks : No
Null samples used in CRC calculations : Yes
Used interface : Native Win32 interface for Win NT & 2000
Gap handling : Appended to previous track

Used output format : User Defined Encoder
Selected bitrate : 320 kBit/s
Quality : High
Add ID3 tag : Yes
Command line compressor : C:\Program Files\Exact Audio Copy\flac.exe
Additional command line options : -8 -V -T "artist=%a" -T "title=%t" -T "album=%g" -T "date=%y" -T "tracknumber=%n" -T "genre=%m" %s


TOC of the extracted CD

Track | Start | Length | Start sector | End sector
---------------------------------------------------------
1 | 0:00.00 | 2:22.35 | 0 | 10684
2 | 2:22.35 | 6:08.37 | 10685 | 38321
3 | 8:30.72 | 1:51.68 | 38322 | 46714
4 | 10:22.65 | 5:36.57 | 46715 | 71971
5 | 15:59.47 | 4:57.55 | 71972 | 94301
6 | 20:57.27 | 4:44.45 | 94302 | 115646
7 | 25:41.72 | 3:29.20 | 115647 | 131341
8 | 29:11.17 | 8:50.55 | 131342 | 171146
9 | 38:01.72 | 3:08.73 | 171147 | 185319
10 | 41:10.70 | 4:37.37 | 185320 | 206131
11 | 45:48.32 | 3:00.48 | 206132 | 219679
12 | 48:49.05 | 4:07.32 | 219680 | 238236
13 | 52:56.37 | 4:48.50 | 238237 | 259886
14 | 57:45.12 | 3:30.05 | 259887 | 275641
15 | 61:15.17 | 8:00.55 | 275642 | 311696
16 | 69:15.72 | 2:27.25 | 311697 | 322746


Track 1

Filename G:\EAC Rips\Stevie Ray Vaughan - 1999 - The Real Deal- Greatest Hits 2\01 - Love Struck Baby.wav

Pre-gap length 0:00:02.00

Peak level 99.9 %
Track quality 99.9 %
Test CRC EC5F1AE3
Copy CRC EC5F1AE3
Accurately ripped (confidence 36) [95097B0F]
Copy OK

Track 2

Filename G:\EAC Rips\Stevie Ray Vaughan - 1999 - The Real Deal- Greatest Hits 2\02 - Ain't Gone 'N' Give Up On Love.wav

Pre-gap length 0:00:00.60

Peak level 100.0 %
Track quality 100.0 %
Test CRC 7F389CEA
Copy CRC 7F389CEA
Accurately ripped (confidence 37) [C530FE0B]
Copy OK

Track 3

Filename G:\EAC Rips\Stevie Ray Vaughan - 1999 - The Real Deal- Greatest Hits 2\03 - Scuttle Buttin'.wav

Pre-gap length 0:00:01.20

Peak level 99.9 %
Track quality 99.9 %
Test CRC C03DAF5C
Copy CRC C03DAF5C
Accurately ripped (confidence 37) [7A35CEC2]
Copy OK

Track 4

Filename G:\EAC Rips\Stevie Ray Vaughan - 1999 - The Real Deal- Greatest Hits 2\04 - Wall Of Denial.wav

Pre-gap length 0:00:00.17

Peak level 100.0 %
Track quality 100.0 %
Test CRC 5A61B616
Copy CRC 5A61B616
Accurately ripped (confidence 36) [83A5A384]
Copy OK

Track 5

Filename G:\EAC Rips\Stevie Ray Vaughan - 1999 - The Real Deal- Greatest Hits 2\05 - Lenny.wav

Pre-gap length 0:00:00.21

Peak level 87.8 %
Track quality 100.0 %
Test CRC 7FF7F28B
Copy CRC 7FF7F28B
Accurately ripped (confidence 36) [72755AF2]
Copy OK

Track 6

Filename G:\EAC Rips\Stevie Ray Vaughan - 1999 - The Real Deal- Greatest Hits 2\06 - Superstition (Live).wav

Pre-gap length 0:00:00.36

Peak level 90.1 %
Track quality 99.9 %
Test CRC 37E3859F
Copy CRC 37E3859F
Accurately ripped (confidence 34) [E65883E6]
Copy OK

Track 7

Filename G:\EAC Rips\Stevie Ray Vaughan - 1999 - The Real Deal- Greatest Hits 2\07 - Empty Arms.wav

Pre-gap length 0:00:01.42

Peak level 89.1 %
Track quality 100.0 %
Test CRC 99686385
Copy CRC 99686385
Accurately ripped (confidence 36) [B89E9D18]
Copy OK

Track 8

Filename G:\EAC Rips\Stevie Ray Vaughan - 1999 - The Real Deal- Greatest Hits 2\08 - Riviera Paradise.wav

Pre-gap length 0:00:00.22

Peak level 100.0 %
Track quality 100.0 %
Test CRC 5D5D9CE6
Copy CRC 5D5D9CE6
Accurately ripped (confidence 36) [61B2EBDD]
Copy OK

Track 9

Filename G:\EAC Rips\Stevie Ray Vaughan - 1999 - The Real Deal- Greatest Hits 2\09 - Look At Little Sister.wav

Pre-gap length 0:00:00.06

Peak level 100.0 %
Track quality 100.0 %
Test CRC 5B15657A
Copy CRC 5B15657A
Accurately ripped (confidence 36) [543F7C68]
Copy OK

Track 10

Filename G:\EAC Rips\Stevie Ray Vaughan - 1999 - The Real Deal- Greatest Hits 2\10 - Willie The Wimp (Live).wav

Pre-gap length 0:00:01.36

Peak level 100.0 %
Track quality 100.0 %
Test CRC 15D0C0D6
Copy CRC 15D0C0D6
Accurately ripped (confidence 34) [9C1F36E3]
Copy OK

Track 11

Filename G:\EAC Rips\Stevie Ray Vaughan - 1999 - The Real Deal- Greatest Hits 2\11 - Pipeline.wav

Pre-gap length 0:00:01.62

Peak level 89.1 %
Track quality 99.9 %
Test CRC DE935585
Copy CRC DE935585
Accurately ripped (confidence 34) [C2CD51BF]
Copy OK

Track 12

Filename G:\EAC Rips\Stevie Ray Vaughan - 1999 - The Real Deal- Greatest Hits 2\12 - Shake For Me (Live).wav

Pre-gap length 0:00:00.84

Peak level 80.2 %
Track quality 100.0 %
Test CRC 1DD6CF6D
Copy CRC 1DD6CF6D
Accurately ripped (confidence 35) [01737949]
Copy OK

Track 13

Filename G:\EAC Rips\Stevie Ray Vaughan - 1999 - The Real Deal- Greatest Hits 2\13 - Leave My Girl Alone (Live).wav

Pre-gap length 0:00:01.49

Peak level 89.1 %
Track quality 100.0 %
Test CRC 400CBCAF
Copy CRC 400CBCAF
Accurately ripped (confidence 36) [32821C8D]
Copy OK

Track 14

Filename G:\EAC Rips\Stevie Ray Vaughan - 1999 - The Real Deal- Greatest Hits 2\14 - Telephone Song.wav

Pre-gap length 0:00:01.66

Peak level 100.0 %
Track quality 100.0 %
Test CRC B2AEDE9C
Copy CRC B2AEDE9C
Accurately ripped (confidence 35) [A6755F39]
Copy OK

Track 15

Filename G:\EAC Rips\Stevie Ray Vaughan - 1999 - The Real Deal- Greatest Hits 2\15 - Voodoo Chile (Slight Return).wav

Pre-gap length 0:00:01.45

Peak level 90.9 %
Track quality 100.0 %
Test CRC 7A4AAC7A
Copy CRC 7A4AAC7A
Accurately ripped (confidence 32) [90710582]
Copy OK

Track 16

Filename G:\EAC Rips\Stevie Ray Vaughan - 1999 - The Real Deal- Greatest Hits 2\16 - Life By The Drop.wav

Pre-gap length 0:00:02.01

Peak level 72.6 %
Track quality 100.0 %
Test CRC C03615F6
Copy CRC C03615F6
Accurately ripped (confidence 34) [47EE4913]
Copy OK


All tracks accurately ripped

No errors occurred

End of status report


Hotfile Links



Rapid Share Links



Links Are Interchangeable


Password: mr. magoo

ADVERTISING » Download fast « ADVERTISING
Posted By: musicjunky Date: 26 Jan 2022 17:43:23
For those of you who tried to download the SVR RS links on my previous post, don't know what happened. I had uploaded them last night and this morning right before this one. I did the usual copy and paste. Just reposted SVR's Greatest Hits with "working RS links". Waiting for Avax's approval.
Posted By: MsUnique98 Date: 26 Jan 2022 21:20:08
Thanks musicjunky . I am just becoming familiar with SRV. This will be a great start.
Posted By: musicjunky Date: 26 Jan 2022 21:36:42
@MsUnique98

Yes it will and you won't be disappointed. ;)
Posted By: jorgeluiz Date: 26 Jan 2022 22:01:51
very very cool, thanks so much again! :-)
Posted By: lkrushel Date: 27 Jan 2022 16:41:05
Thanks for the great post!
Recent searches:
DONATE AVAXHOME:

Donate please!