Loading...
Done
Home > Music
Stevie Ray Vaughan - Greatest Hits (1995)
Posted By : musicjunky | Date : 26 Jan 2022 14:15:20 | Comments : 8

Stevie Ray Vaughan - Greatest Hits (1995)
EAC AccurateRip | FLAC + Log + Cue | Scans | 326 MB | HF + RS | 5% recovery
Label: Epic EK 66217 | Genre: Rock

Stevie Ray Vaughan was a great guitarist, but he had trouble making consistent albums. Greatest Hits rectifies that problem by collecting all of his best-known tracks, from "Pride and Joy" to "Crossfire." Not only is it a terrific introduction, it's his most consistent album, demonstrating exactly why he was one of the most important guitarists of the '80s.

Tracks:
01 - Taxman
02 - Texas Flood
03 - The House Is Rockin'
04 - Pride And Joy
05 - Tightrope
06 - Little Wing
07 - Crossfire
08 - Change It
09 - Cold Shot
10 - Couldn't Stand The Weather
11 - Life Without You

EAC LOG
Exact Audio Copy V0.99 prebeta 5 from 4. May 2009

EAC extraction logfile from 18. January 2010, 14:56

Stevie Ray Vaughan / Greatest Hits

Used drive : Memorex 52MAXX 3252AJ1v2 Adapter: 0 ID: 0

Read mode : Secure
Utilize accurate stream : Yes
Defeat audio cache : Yes
Make use of C2 pointers : No

Read offset correction : 6
Overread into Lead-In and Lead-Out : No
Fill up missing offset samples with silence : Yes
Delete leading and trailing silent blocks : No
Null samples used in CRC calculations : Yes
Used interface : Native Win32 interface for Win NT & 2000
Gap handling : Appended to previous track

Used output format : User Defined Encoder
Selected bitrate : 320 kBit/s
Quality : High
Add ID3 tag : Yes
Command line compressor : C:\Program Files\Exact Audio Copy\flac.exe
Additional command line options : -8 -V -T "artist=%a" -T "title=%t" -T "album=%g" -T "date=%y" -T "tracknumber=%n" -T "genre=%m" %s


TOC of the extracted CD

Track | Start | Length | Start sector | End sector
---------------------------------------------------------
1 | 0:00.00 | 3:33.70 | 0 | 16044
2 | 3:33.70 | 5:21.72 | 16045 | 40191
3 | 8:55.67 | 2:24.28 | 40192 | 51019
4 | 11:20.20 | 3:40.32 | 51020 | 67551
5 | 15:00.52 | 4:39.20 | 67552 | 88496
6 | 19:39.72 | 6:48.63 | 88497 | 119159
7 | 26:28.60 | 4:09.65 | 119160 | 137899
8 | 30:38.50 | 3:58.45 | 137900 | 155794
9 | 34:37.20 | 4:00.45 | 155795 | 173839
10 | 38:37.65 | 4:42.22 | 173840 | 195011
11 | 43:20.12 | 4:16.30 | 195012 | 214241


Track 1

Filename G:\EAC Rips\Stevie Ray Vaughan - 1995 - Greatest Hits\01 - Taxman.wav

Pre-gap length 0:00:02.00

Peak level 99.5 %
Track quality 100.0 %
Test CRC 0B431997
Copy CRC 0B431997
Accurately ripped (confidence 36) [55DC47E9]
Copy OK

Track 2

Filename G:\EAC Rips\Stevie Ray Vaughan - 1995 - Greatest Hits\02 - Texas Flood.wav

Pre-gap length 0:00:01.20

Peak level 98.8 %
Track quality 100.0 %
Test CRC 8801E4E8
Copy CRC 8801E4E8
Accurately ripped (confidence 37) [AFDA4756]
Copy OK

Track 3

Filename G:\EAC Rips\Stevie Ray Vaughan - 1995 - Greatest Hits\03 - The House Is Rockin'.wav

Pre-gap length 0:00:01.20

Peak level 98.8 %
Track quality 100.0 %
Test CRC 998B07D1
Copy CRC 998B07D1
Accurately ripped (confidence 35) [3BC515B7]
Copy OK

Track 4

Filename G:\EAC Rips\Stevie Ray Vaughan - 1995 - Greatest Hits\04 - Pride And Joy.wav

Pre-gap length 0:00:01.06

Peak level 98.8 %
Track quality 100.0 %
Test CRC 3214EECC
Copy CRC 3214EECC
Accurately ripped (confidence 36) [171DFA43]
Copy OK

Track 5

Filename G:\EAC Rips\Stevie Ray Vaughan - 1995 - Greatest Hits\05 - Tightrope.wav

Pre-gap length 0:00:01.22

Peak level 98.8 %
Track quality 99.9 %
Test CRC 88FBB589
Copy CRC 88FBB589
Accurately ripped (confidence 35) [5FF26E1E]
Copy OK

Track 6

Filename G:\EAC Rips\Stevie Ray Vaughan - 1995 - Greatest Hits\06 - Little Wing.wav

Pre-gap length 0:00:01.06

Peak level 98.8 %
Track quality 100.0 %
Test CRC 6E765A04
Copy CRC 6E765A04
Accurately ripped (confidence 35) [4815DF65]
Copy OK

Track 7

Filename G:\EAC Rips\Stevie Ray Vaughan - 1995 - Greatest Hits\07 - Crossfire.wav

Pre-gap length 0:00:01.08

Peak level 98.8 %
Track quality 100.0 %
Test CRC 275E8A5D
Copy CRC 275E8A5D
Accurately ripped (confidence 36) [A5F7DD42]
Copy OK

Track 8

Filename G:\EAC Rips\Stevie Ray Vaughan - 1995 - Greatest Hits\08 - Change It.wav

Pre-gap length 0:00:01.24

Peak level 96.7 %
Track quality 100.0 %
Test CRC 5A9DF3B6
Copy CRC 5A9DF3B6
Accurately ripped (confidence 37) [B28DCD55]
Copy OK

Track 9

Filename G:\EAC Rips\Stevie Ray Vaughan - 1995 - Greatest Hits\09 - Cold Shot.wav

Pre-gap length 0:00:01.44

Peak level 98.8 %
Track quality 100.0 %
Test CRC E66DB25F
Copy CRC E66DB25F
Accurately ripped (confidence 36) [4A5FD231]
Copy OK

Track 10

Filename G:\EAC Rips\Stevie Ray Vaughan - 1995 - Greatest Hits\10 - Couldn't Stand The Weather.wav

Pre-gap length 0:00:01.20

Peak level 98.8 %
Track quality 100.0 %
Test CRC A0C32E44
Copy CRC A0C32E44
Accurately ripped (confidence 36) [BD97464E]
Copy OK

Track 11

Filename G:\EAC Rips\Stevie Ray Vaughan - 1995 - Greatest Hits\11 - Life Without You.wav

Pre-gap length 0:00:01.18

Peak level 98.8 %
Track quality 100.0 %
Test CRC E3D6BFFB
Copy CRC E3D6BFFB
Accurately ripped (confidence 35) [1B8B31E8]
Copy OK


All tracks accurately ripped

No errors occurred

End of status report


Recopied RS download links. Don't know what happened. Working now


Hotfile Links



Rapid Share Links



Links Are Interchangeable


Password: mr. magoo
ADVERTISING » Download fast « ADVERTISING
Posted By: ANSELMO52 Date: 26 Jan 2022 15:22:27
Thanks, but the password is wrong!
Posted By: musicjunky Date: 26 Jan 2022 16:00:48
I reposted this with the correct password: mr. magoo

Sorry to ANSELMO52 and to anyone else that this was an inconvenience to.
Posted By: Sadream Date: 26 Jan 2022 17:03:39
Really sorry but the RS links are reporting that have been removed.
I kindly ask you to check it out once again please.Thank You!
Posted By: frigo394 Date: 26 Jan 2022 17:31:30
RS links are dead.
Please repost
Posted By: mr. magoo Date: 26 Jan 2022 17:33:26
Rapid Share links are now working like they are supposed to. Everything that could have happened to this post, happened. "Murphy's Law". Sorry for the inconvenience.
Posted By: MsUnique98 Date: 26 Jan 2022 21:16:28
Thank you for sharing!
Posted By: frigo394 Date: 26 Jan 2022 21:53:44
Thanks a lot for reposting!
Posted By: jorgeluiz Date: 26 Jan 2022 22:09:43
thanks so much musicjunky. :-)
DONATE AVAXHOME:

Donate please!