Loading...
Done
Home > Music
Posted By : chicopicho | Date : 17 Oct 2021 22:31:52 | Comments : 3 |

Ron Carter And Jim Hall - Telephone (1985)
EAC rip (secure mode) | FLAC+CUE+LOG | Scans | 200 MB (+5%) | MP3 320 kbps CBR | 112 Mb (+5%)
Genre: Jazz; Contemporary Jazz | Label: Concord Jazz | Original Release Date: 1985


The third live CD featuring bassist Ron Carter and guitarist Jim Hall in a duo setting is yet another gem. This 1984 concert, taped at the Concord Jazz Festival, kicks off with Carter's lively blues "Telephone," which gives the pair an opportunity to tightrope walk in unison on the song's tricky theme as well as show off their individual chops as soloists. Hall's "Chorale and Dance" is a two- part composition that begins in a very formal, semi-classical vein before segueing into a Latin setting. They tackle the standard "Alone Together" at a faster clip than their first release together, yet maintain its intimacy. Hall's "Two's Blues" is another daredevil performance. In spite of the virtuoso talent of both men, it is incredible how they achieve so much with so little volume; this release is highly recommended, as are their two previous duo recordings. ~ Ken Dryden, All Music Guide

Tracklist

1.Telephone
2.Indian Summer
3.Candlelight
4.Chorale And Dance
5.Alone Together
6.Stardust
7.Two's Blues


EAC Log
Exact Audio Copy V0.99 prebeta 4 from 23. January 2008

EAC extraction logfile from 16. October 2010, 19:39

Ron Carter & Jim Hall / Telephone

Used drive : HL-DT-STDVDRAM GSA-H42N Adapter: 0 ID: 1

Read mode : Secure
Utilize accurate stream : Yes
Defeat audio cache : Yes
Make use of C2 pointers : No

Read offset correction : 667
Overread into Lead-In and Lead-Out : No
Fill up missing offset samples with silence : Yes
Delete leading and trailing silent blocks : No
Null samples used in CRC calculations : Yes
Used interface : Native Win32 interface for Win NT & 2000
Gap handling : Appended to previous track

Used output format : User Defined Encoder
Selected bitrate : 320 kBit/s
Quality : High
Add ID3 tag : No
Command line compressor : C:\Program Files\Exact Audio Copy\Flac\flac.exe
Additional command line options : -8 -V -T "ARTIST=%a" -T "TITLE=%t" -T "ALBUM=%g" -T "DATE=%y" -T "TRACKNUMBER=%n" -T "GENRE=%m" -T "COMMENT=EAC Flac 1.1.4 -8" %s


TOC of the extracted CD

Track | Start | Length | Start sector | End sector
---------------------------------------------------------
1 | 0:00.00 | 0:22.62 | 0 | 1711
2 | 0:22.62 | 5:11.10 | 1712 | 25046
3 | 5:33.72 | 5:54.73 | 25047 | 51669
4 | 11:28.70 | 4:16.42 | 51670 | 70911
5 | 15:45.37 | 6:52.68 | 70912 | 101879
6 | 22:38.30 | 10:30.40 | 101880 | 149169
7 | 33:08.70 | 7:45.12 | 149170 | 184056
8 | 40:54.07 | 4:43.18 | 184057 | 205299


Track 1

Filename D:\My Rips\Ron Carter & Jim Hall - 1985 - Telephone\01 - Introductory Statement .wav

Pre-gap length 0:00:02.00

Peak level 98.4 %
Track quality 100.0 %
Test CRC 73322CA2
Copy CRC 73322CA2
Accurately ripped (confidence 3) [3FF9EB2F]
Copy OK

Track 2

Filename D:\My Rips\Ron Carter & Jim Hall - 1985 - Telephone\02 - Telephone .wav

Peak level 98.3 %
Track quality 99.9 %
Test CRC DFB8A49F
Copy CRC DFB8A49F
Accurately ripped (confidence 3) [D4A01307]
Copy OK

Track 3

Filename D:\My Rips\Ron Carter & Jim Hall - 1985 - Telephone\03 - Indian Summer .wav

Peak level 98.3 %
Track quality 99.9 %
Test CRC C2E6C148
Copy CRC C2E6C148
Accurately ripped (confidence 3) [D545A8EC]
Copy OK

Track 4

Filename D:\My Rips\Ron Carter & Jim Hall - 1985 - Telephone\04 - Candlelight .wav

Peak level 73.4 %
Track quality 100.0 %
Test CRC 7F227566
Copy CRC 7F227566
Accurately ripped (confidence 3) [D8DED527]
Copy OK

Track 5

Filename D:\My Rips\Ron Carter & Jim Hall - 1985 - Telephone\05 - Chorale and Dance .wav

Peak level 79.4 %
Track quality 100.0 %
Test CRC E1DF88AC
Copy CRC E1DF88AC
Accurately ripped (confidence 3) [7B731830]
Copy OK

Track 6

Filename D:\My Rips\Ron Carter & Jim Hall - 1985 - Telephone\06 - Alone Together .wav

Peak level 84.1 %
Track quality 100.0 %
Test CRC 13EB526A
Copy CRC 13EB526A
Accurately ripped (confidence 3) [96BEF149]
Copy OK

Track 7

Filename D:\My Rips\Ron Carter & Jim Hall - 1985 - Telephone\07 - Stardust .wav

Peak level 89.6 %
Track quality 100.0 %
Test CRC 70465A9E
Copy CRC 70465A9E
Accurately ripped (confidence 3) [5FD80A8A]
Copy OK

Track 8

Filename D:\My Rips\Ron Carter & Jim Hall - 1985 - Telephone\08 - Two's Blues .wav

Peak level 85.3 %
Track quality 100.0 %
Test CRC EF77B01F
Copy CRC EF77B01F
Accurately ripped (confidence 3) [9DCCC639]
Copy OK


All tracks accurately ripped

No errors occurred

End of status report




personnel :

Ron Carter - Bass
Jim Hall - Guitar


HF Linkz


Fileserve Linkz



the files are interchangeable...
ADVERTISING » High Speed Download « ADVERTISING




Posted By: frav10 Date: 18 Oct 2021 06:58:19
Thank's from Israel :))
Posted By: FreddieCouples Date: 18 Oct 2021 11:28:30
Thanks again!
Posted By: bergerac123 Date: 18 Oct 2021 15:18:15
Another nice one - Thanks.
Recent searches: