Loading...
Done
Home > Music
Posted By : chicopicho | Date : 18 Oct 2021 11:11:14 | Comments : 4 |

Ron Carter & Jim Hall - Live at Village West (1982)
EAC rip (secure mode) | FLAC+CUE+LOG | Scans | 249 MB (+5%) | MP3 320 kbps CBR | 142 Mb (+5%)
Genre: Jazz | Label: Concord Jazz | Original Release Date: 1982

The second live collaboration between bassist Ron Carter and guitarist Jim Hall follows their first recording together by a decade, but their chemistry together is every bit as strong, if not improved. Other than the occasional sound of the bar cash register, there is little in the way of background noise as the audience remains transfixed to the intricate improvisations of the duo, along with their solid comping for one another. The fare includes brilliant renditions of standards such as "All the Things You Are" and "Embraceable You"; classic jazz works like "Bag's Groove," "St. Thomas," and "Blue Monk"; along with originals like Carter's stunning "New Waltz" (with its very abstract improvised arrangement) and Hall's infectious "Down From Antigua," which deserves to become a jazz standard. Highly recommended. ~ Ken Dryden, AMG

Tracklist

1. Bag's Groove
2. All the Things You Are
3. Blue Monk
4. New Waltz
5. Down from Antigua
6. Summer Night
7. St. Thomas
8. Embraceable You
9. Laverne Walk
10. Baubles, Bangles and Beads

EAC Log
Exact Audio Copy V0.99 prebeta 4 from 23. January 2008

EAC extraction logfile from 18. October 2010, 11:39

Ron Carter & Jim Hall / Live at Village West

Used drive : HL-DT-STDVDRAM GSA-H42N Adapter: 0 ID: 1

Read mode : Secure
Utilize accurate stream : Yes
Defeat audio cache : Yes
Make use of C2 pointers : No

Read offset correction : 667
Overread into Lead-In and Lead-Out : No
Fill up missing offset samples with silence : Yes
Delete leading and trailing silent blocks : No
Null samples used in CRC calculations : Yes
Used interface : Native Win32 interface for Win NT & 2000
Gap handling : Appended to previous track

Used output format : User Defined Encoder
Selected bitrate : 320 kBit/s
Quality : High
Add ID3 tag : No
Command line compressor : C:\Program Files\Exact Audio Copy\Flac\flac.exe
Additional command line options : -8 -V -T "ARTIST=%a" -T "TITLE=%t" -T "ALBUM=%g" -T "DATE=%y" -T "TRACKNUMBER=%n" -T "GENRE=%m" -T "COMMENT=EAC Flac 1.1.4 -8" %s


TOC of the extracted CD

Track | Start | Length | Start sector | End sector
---------------------------------------------------------
1 | 0:00.00 | 4:22.35 | 0 | 19684
2 | 4:22.35 | 5:52.07 | 19685 | 46091
3 | 10:14.42 | 5:18.43 | 46092 | 69984
4 | 15:33.10 | 6:15.00 | 69985 | 98109
5 | 21:48.10 | 7:34.15 | 98110 | 132174
6 | 29:22.25 | 6:59.25 | 132175 | 163624
7 | 36:21.50 | 4:50.25 | 163625 | 185399
8 | 41:12.00 | 6:48.00 | 185400 | 215999
9 | 48:00.00 | 5:30.05 | 216000 | 240754
10 | 53:30.05 | 5:16.62 | 240755 | 264516


Track 1

Filename D:\My Rips\Ron Carter & Jim Hall - 1982 - Live at Village West\01 - Bag's Groove .wav

Pre-gap length 0:00:02.00

Peak level 92.8 %
Track quality 100.0 %
Test CRC 0B948B70
Copy CRC 0B948B70
Track not present in AccurateRip database
Copy OK

Track 2

Filename D:\My Rips\Ron Carter & Jim Hall - 1982 - Live at Village West\02 - All The Things You Are .wav

Peak level 85.6 %
Track quality 100.0 %
Test CRC F095602D
Copy CRC F095602D
Track not present in AccurateRip database
Copy OK

Track 3

Filename D:\My Rips\Ron Carter & Jim Hall - 1982 - Live at Village West\03 - Blue Monk .wav

Peak level 88.1 %
Track quality 100.0 %
Test CRC C31F0FDF
Copy CRC C31F0FDF
Track not present in AccurateRip database
Copy OK

Track 4

Filename D:\My Rips\Ron Carter & Jim Hall - 1982 - Live at Village West\04 - New Waltz .wav

Peak level 85.8 %
Track quality 100.0 %
Test CRC 1916A9D2
Copy CRC 1916A9D2
Track not present in AccurateRip database
Copy OK

Track 5

Filename D:\My Rips\Ron Carter & Jim Hall - 1982 - Live at Village West\05 - Down From Antigua .wav

Peak level 80.2 %
Track quality 100.0 %
Test CRC AA7D3BDA
Copy CRC AA7D3BDA
Track not present in AccurateRip database
Copy OK

Track 6

Filename D:\My Rips\Ron Carter & Jim Hall - 1982 - Live at Village West\06 - Summer Night .wav

Peak level 72.3 %
Track quality 100.0 %
Test CRC 1259A758
Copy CRC 1259A758
Track not present in AccurateRip database
Copy OK

Track 7

Filename D:\My Rips\Ron Carter & Jim Hall - 1982 - Live at Village West\07 - St. Thomas .wav

Peak level 85.7 %
Track quality 100.0 %
Test CRC 7EECDD44
Copy CRC 7EECDD44
Track not present in AccurateRip database
Copy OK

Track 8

Filename D:\My Rips\Ron Carter & Jim Hall - 1982 - Live at Village West\08 - Embraceable You .wav

Peak level 94.2 %
Track quality 100.0 %
Test CRC D12DEB44
Copy CRC D12DEB44
Cannot be verified as accurate (confidence 1) [57532F13], AccurateRip returned [DA18AA00]
Copy OK

Track 9

Filename D:\My Rips\Ron Carter & Jim Hall - 1982 - Live at Village West\09 - Laverne Walk .wav

Peak level 98.4 %
Track quality 99.9 %
Test CRC DC069EEA
Copy CRC DC069EEA
Cannot be verified as accurate (confidence 1) [F0B539C9], AccurateRip returned [067A1B2E]
Copy OK

Track 10

Filename D:\My Rips\Ron Carter & Jim Hall - 1982 - Live at Village West\10 - Baubles, Bangles And Beads .wav

Peak level 98.5 %
Track quality 99.9 %
Test CRC D8CE09E0
Copy CRC D8CE09E0
Cannot be verified as accurate (confidence 1) [F9273968], AccurateRip returned [A77CFB69]
Copy OK


3 track(s) could not be verified as accurate
7 track(s) not present in the AccurateRip database

No tracks could be verified as accurate
You may have a different pressing from the one(s) in the database

No errors occurred

End of status report



Personnel:

Ron Carter - Double Bass
Jim Hall - Guitar

HF Linkz


Fileserve Linkz


the files are interchangeable...
ADVERTISING » High Speed Download « ADVERTISING




Posted By: FreddieCouples Date: 18 Oct 2021 11:21:44
Nice share!
Thx!
Posted By: bergerac123 Date: 18 Oct 2021 15:17:25
Nice one - Thanks.
Posted By: billy joe Date: 19 Oct 2021 02:49:58
many thanks...............
Posted By: klakadak Date: 19 Oct 2021 02:52:23
Thanks a lot for this one and the "Telephone" album.

FYI, I downloaded 320 mp3, and it doesn't come with scans.
Recent searches: