Loading...
Done
Home > Music > +Rock > Stoner Rock
Blacktusk & ASG - Low Country (2009) [Split CD]
Posted By : Necromandus | Date : 04 Mar 2022 08:11:00 | Comments : 2

Blacktusk & ASG - Low Country (2009) [Split CD]
EAC Rip | WV, IMG+CUE+LOG | 210 MB | MP3 CBR 320 Kbps | 70 MB | Complete Scans (included)
Stoner Rock/Sludge | Label: Hyperrealist Records | Catalog Number: HR022 | RAR 3% Rec. | RS.com

The inevitable split with Savannah, GA's BLACK TUSK and Wilmington, NC's ASG. Four new ASG tracks recorded live in the studio to capture the bands raw intensity. Black Tusk round this out with three new tracks of the dirty southern metal only they can deliver. Just enough to hold you over until the new LP drops in early '10. CD out now, 10" coming soon. Both sides produced by Phillip Cope (KYLESA). Cover art by John Baizley (BARONESS).

~ www.hyperrealist.com

Tracklist:
1. ASG - Morning Of The Earth - 4:06
2. ASG - Young And Innocent - 4:14
3. ASG - Not My Kind - 2:40
4. ASG - Black Magic - 4:17
5. BlackTusk - Rift Of Men - 4:17
6. BlackTusk - Cease Fire - 2:35
7. BlackTusk - Death March - 3:58

EAC extraction logfile
Exact Audio Copy V0.99 prebeta 5 from 4. May 2009

EAC extraction logfile from 14. February 2010, 18:00

ASG & Blacktusk / Low Country

Used drive : TSSTcorpDVD+-RW TS-H653G Adapter: 1 ID: 0

Read mode : Secure
Utilize accurate stream : Yes
Defeat audio cache : Yes
Make use of C2 pointers : No

Read offset correction : 6
Overread into Lead-In and Lead-Out : No
Fill up missing offset samples with silence : Yes
Delete leading and trailing silent blocks : No
Null samples used in CRC calculations : Yes
Used interface : Native Win32 interface for Win NT & 2000

Used output format : User Defined Encoder
Selected bitrate : 128 kBit/s
Quality : High
Add ID3 tag : No
Command line compressor : C:\Program Files (x86)\EAC\Exact Audio Copy\Flac\flac.exe
Additional command line options : -6 -V %s


TOC of the extracted CD

Track | Start | Length | Start sector | End sector
---------------------------------------------------------
1 | 0:00.00 | 4:05.56 | 0 | 18430
2 | 4:05.56 | 4:14.27 | 18431 | 37507
3 | 8:20.08 | 2:40.25 | 37508 | 49532
4 | 11:00.33 | 4:16.62 | 49533 | 68794
5 | 15:17.20 | 4:17.13 | 68795 | 88082
6 | 19:34.33 | 2:34.40 | 88083 | 99672
7 | 22:08.73 | 3:57.41 | 99673 | 117488


Range status and errors

Selected range

Filename C:\Users\sammy\Music\lossless rips by twistedsam\ASG & Blacktusk - Low Country (2009)\ASG & Blacktusk - Low Country.wav

Peak level 97.8 %
Range quality 100.0 %
Copy CRC 4FAA95A8
Copy OK

No errors occurred


AccurateRip summary

Track 1 not present in database
Track 2 not present in database
Track 3 not present in database
Track 4 not present in database
Track 5 not present in database
Track 6 not present in database
Track 7 not present in database

None of the tracks are present in the AccurateRip database

End of status report

ASG
• Jason Shi - vocals/guitar
• Jonah Citty - guitar
• Andy Ellis - bass
• Scott Key (drums)

Recorded and mixed at the Jam Room in Columbia, SC, February 23-26, 2009
Mastered by Dave Harris at Studio B in Charlotte, NC

Blacktusk
• Andrew - guitar/vocals
• Athon - bass/vocals
• James - drums/vocals

Recorded at the The Jam Room, March of 2009 in Columbia, SC
Engineered by Jay Matheson, Steve Slavich, Zak Thomas and Phillip Cope.
Mastered by Dave Harris at Studio B in Charlotte, NC
Produced by Phillip Cope

lossless* (wv, covers included - 210Mb):
http://rapidshare.com/files/358709811/029AGBT09LCLOS.part1.rar
http://rapidshare.com/files/358709803/029AGBT09LCLOS.part2.rar
http://rapidshare.com/files/358709801/029AGBT09LCLOS.part3.rar

mp3 (cbr320, 70Mb):
http://rapidshare.com/files/358710041/029AGBT09LCMP3.rar

* - EAC Image, standard LOG, embedded cuesheet, Foobar2000 ready
Fully & properly repackaged, Huge thanks to the Original Releaser [MMT @twistedsam] !
ADVERTISING » Download fast « ADVERTISING
Posted By: 1541-II Date: 04 Mar 2022 09:52:09
What is actually a "SPIT CD"?
Posted By: Necromandus Date: 04 Mar 2022 11:35:42
sorry, 'split' :)
Recent searches:
DONATE AVAXHOME:

Donate please!