Loading...
Done
Home > Music > +Rock > +Rock & Roll | Roots > Surf Rock
Posted By : v3122 | Date : 18 Oct 2021 08:02:23 | Comments : 2 |
The Ventures - 50th Anniversary: Walk Don't Run

The Ventures - 50th Anniversary: Walk Don't Run (2009) [Japan, MYCV-30491]
Surf Rock/Instrumental | EAC Rip | APE(Image) + Cue + Log | MP3 CBR 320Kbps | 25 Tracks
Scans Included | M&I Music | MYCV-30491 | ~457 + 163 Mb | FSonic, FServe

50th anniversary album release from The Ventures

The Ventures

The Ventures
The Ventures:

Formed: 1959, Tacoma, WA
Genres: Rock
Representative Albums: "Walk Don't Run : The Best of the Ventures", "The Ventures on Stage", "The Ventures' Christmas Album"
Representative Songs: "Hawaii Five-O", "Walk, Don't Run", "Perfidia"

Not the first but definitely the most popular rock instrumental combo, the Ventures scored several hit singles during the 1960s -- most notably "Walk-Don't Run" and "Hawaii Five-O" -- but made their name in the growing album market, covering hits of the day and organizing thematically linked LPs. Almost 40 Ventures' albums charted, and 17 hit the Top 40. And though the group's popularity in America virtually disappeared by the 1970s, their enormous contribution to pop culture was far from over; the Ventures soon became one of the most popular world-wide groups, with dozens of albums recorded especially for the Japanese and European markets. They toured continually throughout the 1970s and '80s -- influencing Japanese pop music of the time more than they had American music during the '60s.

The Ventures' origins lie in a Tacoma, Washington group called the Impacts. Around 1959, construction workers and hobby guitarists Bob Bogle and Don Wilson formed the group, gigging around Washington state and Idaho with various rhythm sections as backup. They recorded a demo tape, but after it was rejected by the Liberty Records subsidiary Dolton, the duo founded their own label, Blue Horizon. They released one vocal single ("Cookies and Coke"), then recruited bassist Nokie Edwards and drummer Skip Moore and decided to instead become an instrumental group.

The Ventures went into the studio in 1959 with an idea for a new single they had first heard on Chet Atkins' Hi Fi in Focus LP. Released on Blue Horizon in 1960, the single "Walk-Don't Run" became a big local hit after being aired as a news lead-in on a Seattle radio station (thanks to a friend with connections). In an ironic twist, Dolton Records came calling and licensed the single for national distribution; by summer 1960, it had risen to number two in the charts, behind only "It's Now or Never" by Elvis Presley. After Howie Johnson replaced Moore on drums, the Ventures began recording their debut album, unsurprisingly titled after their hit single.

Two singles, "Perfidia" and "Ram-Bunk-Shush," hit the Top 40 during 1960-61, but the Ventures soon began capitalizing on what became a trademark: releasing LPs which featured songs very loosely arranged around a theme implied in the title. The group's fourth LP, The Colorful Ventures, included "Yellow Jacket," "Red Top," "Orange Fire" and no less than three tracks featuring the word "blue" in the title. The Ventures put their indelible stamp on each style of '60s music they covered, and they covered many -- twist, country, pop, spy music, psychedelic, swamp, garage, TV themes. (In the '70s, the band moved on to funk, disco, reggae, soft rock and Latin music.) The Ventures' lineup changed slightly during 1962. Howie Johnson left the band, to be replaced by session man Mel Taylor; also, Nokie Edwards took over lead guitar with Bob Bogle switching to bass.

One of the few LPs not arranged around a theme became their best-selling; 1963's The Ventures Play Telstar, The Lonely Bull featured a cover of the number one instrumental hit by the British studio band the Tornadoes and produced by Joe Meek. Though their cover of "Telstar" didn't even chart, the album hit the Top Ten and became the group's first of three gold records. A re-write of their signature song -- entitled "Walk-Don't Run '64" -- reached number eight that year. By the mid-'60s however, the Ventures appeared to be losing their touch. Considering the volatility of popular music during the time, it was quite forgivable that the group would lose their heads-up knowledge of current trends in the music industry to forecast which songs should be covered. The television theme "Hawaii Five-O" hit number four in 1969, but the Ventures slipped off the American charts for good in 1972. Instead, the band began looking abroad for attention and -- in Japan especially -- they found it with gusto. After leaving Dolton/Liberty and founding their own Tridex Records label, the Ventures began recording albums specifically for the Japanese market. The group eventually sold over 40 million records in that country alone, becoming one of the biggest American influences on Japanese pop music ever.

Nokie Edwards left the Ventures in 1968 to pursue his interest in horse racing for a time, and was replaced by Gerry McGee; though he returned by 1972, Mel Taylor left the group that year for a solo career, to be replaced by Joe Barile. (Taylor returned also, in 1979.) By the early '80s, the Ventures' core quartet of Wilson, Bogle, Edwards and Taylor could boast of playing together for over 20 years. Though Edwards left the band for good in 1984 (replaced again by Gerry McGee) and Mel Taylor died mid-way through a Japanese tour in 1996 (replaced by his son Leon), the Ventures continued to pack venues around the world.

~ John Bush, Rovi


The Ventures - 50th Anniversary: Walk Don't Run (2009):

The Ventures - 50th Anniversary: Walk Don't Run - cd

Tracklist:

01. Walk Don't Run
02. Pipeline
03. Diamond Head
04. Slaughter On 10th Avenue
05. Wipe Out
06. Movin'
07. Ten Seconds To Heaven
08. Secret Agent Man
09. The House Of The Rising Sun
10. Hawaii Five-0
11. Kyoto Doll
12. Stranger In Midosuji
13. Reflections In A Palace Lake
14. Ginza Lights
15. Hokkaido Skies
16. Penetration
17. Yellow Jacket
18. Telstar
19. Tequila
20. Apache
21. Yozora No Hoshi
22. Journey To The Stars
23. Manchurian Beat
24. Driving Guitars
25. Caravan

EAC Log
Exact Audio Copy V0.99 prebeta 5 from 4. May 2009

Отчёт EAC об извлечении, выполненном 18. октября 2009, 19:57

The Ventures / 50th Anniversary: Walk Don't Run

Дисковод: _NEC DVD_RW ND-4570A Adapter: 0 ID: 0

Режим чтения : Достоверность
Использование точного потока : Да
Отключение кэша аудио : Нет
Использование указателей C2 : Да

Коррекция смещения при чтении : 48
Способность читать области Lead-in и Lead-out : Нет
Заполнение пропущенных сэмплов тишиной : Да
Удаление блоков с тишиной в начале и конце : Нет
При вычислениях CRC использовались нулевые сэмплы : Да
Интерфейс : Установленный внешний ASPI-интерфейс

Выходной формат : Внутренние WAV-операции
Формат сэмплов : 44.100 Гц; 16 бит; стерео


TOC извлечённого CD

Трек | Старт | Длительность | Начальный сектор | Конечный сектор
---------------------------------------------------------------------
1 | 0:00.00 | 2:08.67 | 0 | 9666
2 | 2:08.67 | 2:22.20 | 9667 | 20336
3 | 4:31.12 | 2:14.04 | 20337 | 30390
4 | 6:45.16 | 2:14.65 | 30391 | 40505
5 | 9:00.06 | 3:53.39 | 40506 | 58019
6 | 12:53.45 | 2:09.15 | 58020 | 67709
7 | 15:02.60 | 2:12.32 | 67710 | 77641
8 | 17:15.17 | 2:53.38 | 77642 | 90654
9 | 20:08.55 | 3:10.16 | 90655 | 104920
10 | 23:18.71 | 1:47.47 | 104921 | 112992
11 | 25:06.43 | 2:31.22 | 112993 | 124339
12 | 27:37.65 | 2:10.69 | 124340 | 134158
13 | 29:48.59 | 2:13.25 | 134159 | 144158
14 | 32:02.09 | 2:03.72 | 144159 | 153455
15 | 34:06.06 | 2:21.02 | 153456 | 164032
16 | 36:27.08 | 2:08.12 | 164033 | 173644
17 | 38:35.20 | 2:36.28 | 173645 | 185372
18 | 41:11.48 | 2:36.44 | 185373 | 197116
19 | 43:48.17 | 3:27.63 | 197117 | 212704
20 | 47:16.05 | 2:57.62 | 212705 | 226041
21 | 50:13.67 | 2:03.01 | 226042 | 235267
22 | 52:16.68 | 2:23.74 | 235268 | 246066
23 | 54:40.67 | 2:40.64 | 246067 | 258130
24 | 57:21.56 | 1:56.51 | 258131 | 266881
25 | 59:18.32 | 2:47.53 | 266882 | 279459


Характеристики диапазона извлечения и сообщения об ошибках

Выбранный диапазон

Имя файла G:\Запись\The Ventures\2009-50th Anniversary-Walk Don't Run\The Ventures - 50th Anniversary Walk Don't Run.wav

Пиковый уровень 98.8 %
Качество диапазона 100.0 %
CRC копии D104DB20
Копирование... OK

Ошибок не произошло


AccurateRip: сводка

Трек 1 нет в базе данных
Трек 2 нет в базе данных
Трек 3 нет в базе данных
Трек 4 нет в базе данных
Трек 5 нет в базе данных
Трек 6 нет в базе данных
Трек 7 нет в базе данных
Трек 8 нет в базе данных
Трек 9 нет в базе данных
Трек 10 нет в базе данных
Трек 11 нет в базе данных
Трек 12 нет в базе данных
Трек 13 нет в базе данных
Трек 14 нет в базе данных
Трек 15 нет в базе данных
Трек 16 нет в базе данных
Трек 17 нет в базе данных
Трек 18 нет в базе данных
Трек 19 нет в базе данных
Трек 20 нет в базе данных
Трек 21 нет в базе данных
Трек 22 нет в базе данных
Трек 23 нет в базе данных
Трек 24 нет в базе данных
Трек 25 нет в базе данных

Ни одного трека нет в базе AccurateRip

Конец отчёта

Audiochecker Log
AUDIOCHECKER v2.0 beta (build 457) - by Dester - [email protected]
~~~~~~~~~~~~~~~~~~~~~~~~~~~~~~~~~~
-=== DO NOT EDIT THIS FILE! ===-

Path: ...\The Ventures - 50th Anniversary Walk Don't Run 2009

01 -=- The Ventures - 50th Anniversary Walk Don't Run.ape -=- CDDA (100%)

235322452

Accurip(CUETools 1.9.5)
[Verification date: 16.10.2021 16:22:03]
[Disc ID: 003723ef-03e1f4c6-430e8e19]
Track [ CRC ] Status
01 [b79a90ab] (01/01) Accurately ripped as in pressing(s) #1
02 [1034c0b3] (01/01) Accurately ripped as in pressing(s) #1
03 [584936fb] (01/01) Accurately ripped as in pressing(s) #1
04 [1178ec2d] (01/01) Accurately ripped as in pressing(s) #1
05 [ec42599b] (01/01) Accurately ripped as in pressing(s) #1
06 [55ba9316] (01/01) Accurately ripped as in pressing(s) #1
07 [5296922f] (01/01) Accurately ripped as in pressing(s) #1
08 [3cda71c2] (01/01) Accurately ripped as in pressing(s) #1
09 [2e314ded] (01/01) Accurately ripped as in pressing(s) #1
10 [2282c45f] (01/01) Accurately ripped as in pressing(s) #1
11 [255feb1e] (01/01) Accurately ripped as in pressing(s) #1
12 [140443a3] (01/01) Accurately ripped as in pressing(s) #1
13 [c411facd] (01/01) Accurately ripped as in pressing(s) #1
14 [6397877a] (01/01) Accurately ripped as in pressing(s) #1
15 [224182ff] (01/01) Accurately ripped as in pressing(s) #1
16 [3e73a22f] (01/01) Accurately ripped as in pressing(s) #1
17 [809a9921] (01/01) Accurately ripped as in pressing(s) #1
18 [b17b4570] (01/01) Accurately ripped as in pressing(s) #1
19 [2a766f93] (01/01) Accurately ripped as in pressing(s) #1
20 [80cad72d] (01/01) Accurately ripped as in pressing(s) #1
21 [885c8789] (01/01) Accurately ripped as in pressing(s) #1
22 [46e7d21c] (01/01) Accurately ripped as in pressing(s) #1
23 [94ba8e71] (01/01) Accurately ripped as in pressing(s) #1
24 [8096cd7a] (01/01) Accurately ripped as in pressing(s) #1
25 [1735b5ed] (01/01) Accurately ripped as in pressing(s) #1

Track [ CRC32 ] [W/O NULL] [ LOG ]
-- [D104DB20] [096F467C] CRC32
01 [3A2DAD66] [EEF73D9B]
02 [4122DCFC] [3A69EF52]
03 [75AC55D6] [B5F557E7]
04 [ACDAD974] [3BD85978]
05 [D20D87E5] [541D38E0]
06 [20E1D1C9] [00FB31D9]
07 [75FD2F6D] [E27CBCE1]
08 [905F368C] [0D00C2A0]
09 [84EED346] [040DEA55]
10 [BD9F7788] [92E66D61]
11 [1FA0CCEB] [662BCDA1]
12 [25988C5B] [8CCC6ADE]
13 [BCAE7B24] [36CA207E]
14 [3DF91DEA] [BF9D97DD]
15 [1D40F52C] [7433D862]
16 [6A0E365F] [CABD53AC]
17 [D51BB941] [AAE79535]
18 [FA828B9A] [16A4B02D]
19 [6AABE3B3] [73555360]
20 [9FBFE64D] [0A7B1FB8]
21 [67ADF7DF] [6EC9F4C3]
22 [494A4A61] [0A206CEB]
23 [5E25A3A2] [4870EF4C]
24 [5418DFB2] [9ABF0F38]
25 [69879F32] [0B6851CA]

The Ventures - 50th Anniversary: Walk Don't Run - back


All thanks go to [email protected]
ADVERTISING » High Speed Download « ADVERTISING




Posted By: StiffStrange Date: 18 Oct 2021 08:58:11
Ooooh! Thanks a whole lot!!
Memories :)
Posted By: beatcomber Date: 18 Oct 2021 16:45:22
Amazing!!!

thank you for this gem

All the best

Paulo Castillo
Recent searches: