Loading...
Done
Home > Music > +Rock > Progressive Rock
The Alan Parsons Project - I Robot (1977) [SHM-CD, 2009]
Posted By : juanchito | Date : 01 Mar 2022 19:54:14 | Comments : 9

The Alan Parsons Project - I Robot (1977) [SHM-CD, 2009]
Progressive Rock | FLAC, IMG+CUE+ log | Full Artwork 400 dpi | 372 MB


Japanese-only SHM-CD (Super High Material CD) paper sleeve pressing of this album. SHM-CDs can be played on any audio player and delivers unbelievably high-quality sound. You won't believe it's the same CD! Includes the same bonus tracks that appear on the EU/US expanded editions. Sony/BMG 2009

The second of former Beatles/Pink Floyd engineer Parsons' long string of prog-rock concept albums was also his commercial breakthrough, spawning an unlikely but catchy hit in "I Wouldn't Want to Be Like You." In addition to that tune are other Project faves such as "Breakdown," "Don't Let It Show," and "Day After Day (The Show Must Go On." The ambitiously elaborate 1977 album--according to the liner notes, a meditation on "the rise of the machine and the decline of man"--boasts the sonic wizardry and immaculate musicianship that would become the Project's trademark through the '80s, and features an array of guest vocalists, including Hollies frontman Allan Clarke and Cockney Rebel leader Steve Harley


tracklist:
1. I Robot
2. I Wouldn't Want to Be Like You
3. Some Other Time
4. Breakdown
5. Don't Let It Snow
6. Voice
7. Nucleus
8. Day After Day (The Show Must Go On)
9. Total Eclipse
10. Genesis Ch. 1 V. 32

bonus tracks
11. Boules (I Robot Experiment)
12. Breakdown - (Early Demo Of Backing Riff)
13. I Wouldn't Want to Be Like You - (Backing Track Rough mix)
14. Day After Day - (Early Stage Rough mix)
15. Naked Robot

EAC log
Exact Audio Copy V0.99 prebeta 5 from 4. May 2009

EAC extraction logfile from 16. February 2010, 18:34

The Alan Parsons Project / I Robot

Used drive : TSSTcorpCD/DVDW SH-S183A Adapter: 1 ID: 0

Read mode : Secure
Utilize accurate stream : Yes
Defeat audio cache : Yes
Make use of C2 pointers : No

Read offset correction : 6
Overread into Lead-In and Lead-Out : No
Fill up missing offset samples with silence : Yes
Delete leading and trailing silent blocks : No
Null samples used in CRC calculations : Yes
Used interface : Installed external ASPI interface

Used output format : Internal WAV Routines
Sample format : 44.100 Hz; 16 Bit; Stereo


TOC of the extracted CD

Track | Start | Length | Start sector | End sector
---------------------------------------------------------
1 | 0:00.00 | 6:02.07 | 0 | 27156
2 | 6:02.07 | 3:23.26 | 27157 | 42407
3 | 9:25.33 | 4:05.55 | 42408 | 60837
4 | 13:31.13 | 3:53.09 | 60838 | 78321
5 | 17:24.22 | 4:25.56 | 78322 | 98252
6 | 21:50.03 | 5:23.06 | 98253 | 122483
7 | 27:13.09 | 3:22.32 | 122484 | 137665
8 | 30:35.41 | 3:57.12 | 137666 | 155452
9 | 34:32.53 | 3:12.35 | 155453 | 169887
10 | 37:45.13 | 3:30.41 | 169888 | 185678
11 | 41:15.54 | 1:59.50 | 185679 | 194653
12 | 43:15.29 | 2:11.31 | 194654 | 204509
13 | 45:26.60 | 3:29.58 | 204510 | 220242
14 | 48:56.43 | 3:41.62 | 220243 | 236879
15 | 52:38.30 | 10:19.19 | 236880 | 283323


Range status and errors

Selected range

Filename F:\The Alan Parsons Project-I Robot\The Alan Parsons Project - I Robot.wav

Peak level 98.8 %
Range quality 100.0 %
Test CRC 0D1F9858
Copy CRC 0D1F9858
Copy OK

No errors occurred


AccurateRip summary

Track 1 cannot be verified as accurate (confidence 2) [4B65D54F], AccurateRip returned [7384CEEB]
Track 2 cannot be verified as accurate (confidence 2) [4319FE08], AccurateRip returned [10BA85BF]
Track 3 cannot be verified as accurate (confidence 2) [3F49F77A], AccurateRip returned [97D02EBB]
Track 4 cannot be verified as accurate (confidence 2) [81D86666], AccurateRip returned [A557C660]
Track 5 cannot be verified as accurate (confidence 2) [44A93452], AccurateRip returned [34BC40A8]
Track 6 cannot be verified as accurate (confidence 2) [1347548A], AccurateRip returned [3FC32D7A]
Track 7 cannot be verified as accurate (confidence 2) [396C390C], AccurateRip returned [8F80E306]
Track 8 cannot be verified as accurate (confidence 2) [C7E2DAA3], AccurateRip returned [2EA61453]
Track 9 cannot be verified as accurate (confidence 2) [82A8DF36], AccurateRip returned [12A4EC84]
Track 10 cannot be verified as accurate (confidence 2) [215E4FF2], AccurateRip returned [0EDDBA39]
Track 11 cannot be verified as accurate (confidence 2) [5587FE59], AccurateRip returned [F225C7FB]
Track 12 cannot be verified as accurate (confidence 2) [487DF693], AccurateRip returned [DD4ED67E]
Track 13 cannot be verified as accurate (confidence 2) [6BAD952F], AccurateRip returned [FA436EB1]
Track 14 cannot be verified as accurate (confidence 2) [E12BFC9E], AccurateRip returned [B41719B1]
Track 15 cannot be verified as accurate (confidence 2) [745C34E0], AccurateRip returned [5C8BA3E0]

No tracks could be verified as accurate
You may have a different pressing from the one(s) in the database

End of status report


links:

http://hotfile.com/dl/30742814/e168dbe/Robotjapan.part1.rar.html
http://hotfile.com/dl/30744242/9edda87/Robotjapan.part2.rar.html
http://hotfile.com/dl/30744269/6397648/Robotjapan.part3.rar.html

mirror
http://rapidshare.com/files/356369150/Robotjapan.part1.rar
http://rapidshare.com/files/356400926/Robotjapan.part2.rar
http://rapidshare.com/files/356436359/Robotjapan.part3.rar


pass: juanchito


More Alan Parsons remastered


The Alan Parsons Project - Eye In The Sky (1982) [SHM-CD, 2009]
ADVERTISING » Download fast « ADVERTISING
Posted By: juanchito Date: 01 Mar 2022 20:06:11
Sorry, I forgot the password. The password is:
juanchito

ya fue corregido en el cuerpo del post
Posted By: pmacgaul Date: 02 Mar 2022 02:59:21
Mil gracias Juanchi, muy buen disco.
Posted By: tbavax Date: 02 Mar 2022 03:46:00
Gracia !! juanchito
Posted By: mad-mex Date: 02 Mar 2022 04:57:06
Gracias, Juanchito.
Tengo el CD normal - va a ser interesante de comparar los 2.
Posted By: JoeBloggs1941 Date: 02 Mar 2022 05:06:46
Many Thanks
I Love SHM-CD
Japanese do a Great job don't they?
Awesome sound
Great music :)
Posted By: supertramp Date: 02 Mar 2022 09:38:15
Thank you very much for posting this here
Great sound I Love it
Juanchito....Do You have The Turn Of A Friendly Card SHM-CD ?
Please upload it Thank
Posted By: nanx Date: 02 Mar 2022 10:08:55
Thanks again Juanchito, you have no idea how much these Alan Parsons SHM-CDs are appreciated. Keep them coming! :D
Posted By: wersollsschonsein Date: 02 Mar 2022 13:14:14
Cheers from Ireland.
Posted By: just2fun Date: 02 Mar 2022 19:01:11
Thank you very much, Juanchito. I bought the old original CDs and the newly remastered ones and hence I have every CD twice. Due to your SHM-CD postings I can hear them with that pressing, too. Thank your very much once again.
Recent searches:
DONATE AVAXHOME:

Donate please!