Loading...
Done
Home > Music > +Rock > Progressive Rock
The Alan Parsons Project - Eye In The Sky (1982) [SHM-CD, 2009]
Posted By : juanchito | Date : 01 Mar 2022 03:50:00 | Comments : 4

The Alan Parsons Project - Eye In The Sky (1982) [SHM-CD, 2009]
Progressive Rock | FLAC, IMG+CUE+ log | Full Artwork 400 dpi | 434 MB

Japanese-only SHM-CD (Super High Material CD) paper sleeve pressing of this album. SHM-CDs can be played on any audio player and delivers unbelievably high-quality sound. You won't believe it's the same CD! Includes the same bonus tracks that appear on the EU/US expanded editions. Sony/BMG 2009

Alan Parsons Project's Eye in the Sky was almost guaranteed at least moderate success due to the hits that preceded it ("Games People Play" and "Time" from Turn of a Friendly Card.) With Eye, Parsons returned in some ways to his more progressive, art-rock past and the album only had one major hit, the lush title track. Parsons's approach was a synthesis of studio wizardry with a symphonic, spacey interplay between keyboards, synthesizerss and basic rock instrumentation. Though never a hit, "Psychobabble" remains a favorite of fans. "Children of the Moon," "Sirius," and "Gemini" all have Parsons's love of the esoteric. "Mammagamma" also allowed Parsons to fully indulge his fondness for orchestration with its instrumental structure


tracklist:
1. Sirius (Instrumental) (1:55)
2. Eye In The Sky (4:36)
3. Children Of The Moon (4:51)
4. Gemini (2:10)
5. Silence And I (7:21)
6. You're Gonna Get Your Fingers Burned (4:21)
7. Psychobabble (4:52)
8. Mammagamma (3:34)
9. Step By Step (3:54)
10. Old And Wise (5:05)
11. Sirius (Demo) (1:56)
12. Old And Wise (Eric Woolfson Vocal) (4:34)
13. Any Other Day (Studio Demo) (1:42)
14. Silence And I (Eric Woolfson Vocal) (7:33)
15. The Naked Eye (10:49)
16. Eye Pieces (Classical Naked Eye) (7:51)

EAC log
Exact Audio Copy V0.99 prebeta 5 from 4. May 2009

EAC extraction logfile from 16. February 2010, 20:17

The Alan Parsons Project / Eye In The Sky

Used drive : TSSTcorpCD/DVDW SH-S183A Adapter: 1 ID: 0

Read mode : Secure
Utilize accurate stream : Yes
Defeat audio cache : Yes
Make use of C2 pointers : No

Read offset correction : 6
Overread into Lead-In and Lead-Out : No
Fill up missing offset samples with silence : Yes
Delete leading and trailing silent blocks : No
Null samples used in CRC calculations : Yes
Used interface : Installed external ASPI interface

Used output format : Internal WAV Routines
Sample format : 44.100 Hz; 16 Bit; Stereo


TOC of the extracted CD

Track | Start | Length | Start sector | End sector
---------------------------------------------------------
1 | 0:00.00 | 1:55.21 | 0 | 8645
2 | 1:55.21 | 4:36.21 | 8646 | 29366
3 | 6:31.42 | 4:51.21 | 29367 | 51212
4 | 11:22.63 | 2:10.09 | 51213 | 60971
5 | 13:32.72 | 7:21.33 | 60972 | 94079
6 | 20:54.30 | 4:21.50 | 94080 | 113704
7 | 25:16.05 | 4:52.42 | 113705 | 135646
8 | 30:08.47 | 3:34.71 | 135647 | 151767
9 | 33:43.43 | 3:54.20 | 151768 | 169337
10 | 37:37.63 | 5:05.18 | 169338 | 192230
11 | 42:43.06 | 1:56.16 | 192231 | 200946
12 | 44:39.22 | 4:34.36 | 200947 | 221532
13 | 49:13.58 | 1:42.17 | 221533 | 229199
14 | 50:56.00 | 7:33.59 | 229200 | 263233
15 | 58:29.59 | 10:49.12 | 263234 | 311920
16 | 69:18.71 | 7:51.22 | 311921 | 347267


Range status and errors

Selected range

Filename F:\The Alan Parsons Project-Eye In The Sky\CD\The Alan Parsons Project - Eye In The Sky.wav

Peak level 98.8 %
Range quality 99.9 %
Test CRC 5F039B1F
Copy CRC 5F039B1F
Copy OK

No errors occurred


AccurateRip summary

Track 1 cannot be verified as accurate (confidence 30) [12E2E4F5], AccurateRip returned [89896144]
Track 2 cannot be verified as accurate (confidence 30) [3788C6F0], AccurateRip returned [76D3B5F2]
Track 3 cannot be verified as accurate (confidence 29) [6A9AC2D4], AccurateRip returned [049E9DC6]
Track 4 cannot be verified as accurate (confidence 29) [64A9DAC5], AccurateRip returned [D5A79BDD]
Track 5 cannot be verified as accurate (confidence 29) [DC7ECD9C], AccurateRip returned [743C34FC]
Track 6 cannot be verified as accurate (confidence 29) [DCA19E92], AccurateRip returned [09185D69]
Track 7 cannot be verified as accurate (confidence 29) [9D92B4EF], AccurateRip returned [7DC3832C]
Track 8 cannot be verified as accurate (confidence 29) [25C2A6DB], AccurateRip returned [38C233B7]
Track 9 cannot be verified as accurate (confidence 29) [32A07995], AccurateRip returned [136D6199]
Track 10 cannot be verified as accurate (confidence 30) [07021813], AccurateRip returned [B45F45E4]
Track 11 cannot be verified as accurate (confidence 29) [8CD58566], AccurateRip returned [BFC47C39]
Track 12 cannot be verified as accurate (confidence 27) [0AB34ADB], AccurateRip returned [BCDA2135]
Track 13 cannot be verified as accurate (confidence 29) [807A8BAA], AccurateRip returned [D43B23A7]
Track 14 cannot be verified as accurate (confidence 28) [573DED66], AccurateRip returned [543DF6F6]
Track 15 cannot be verified as accurate (confidence 29) [604C2C3A], AccurateRip returned [8D74E176]
Track 16 cannot be verified as accurate (confidence 26) [ABD9455F], AccurateRip returned [3E934582]

No tracks could be verified as accurate
You may have a different pressing from the one(s) in the database

End of status report


links:

http://hotfile.com/dl/30187627/c2e3b2e/ojo_remasjapan.part1.rar.html
http://hotfile.com/dl/30187938/20c4e79/ojo_remasjapan.part2.rar.html
http://hotfile.com/dl/30188037/efc2c6c/ojo_remasjapan.part3.rar.html

mirror
http://rapidshare.com/files/355510131/ojo_remasjapan.part1.rar
http://rapidshare.com/files/355475943/ojo_remasjapan.part2.rar
http://rapidshare.com/files/355464883/ojo_remasjapan.part3.rar

pass: juanchito

More Alan Parsons remastered


The Alan Parsons Project: Pyramid [SHM-CD] (2009)



ADVERTISING » Download fast « ADVERTISING
Posted By: 4-F Date: 01 Mar 2022 18:03:35
Thanks for the album. The post disappeared for a while and I was wondering what you were editing. I did notice you didn't have the original year of release in the first post. I see you added that.

Yep, I went to leave a comment and the post was gone! I hate that disappearing thing. lol

You do a good job! :)
Posted By: penseur Date: 01 Mar 2022 18:04:12
hi,

thx for this one ;-)
didn't have it in SHM-CD!
ah... "Eye In The Sky" one of my fav prog songs!

thx again
Posted By: tbavax Date: 02 Mar 2022 03:36:37
gracia!!!

thank you very much juanchito!!!
Posted By: JoeBloggs1941 Date: 02 Mar 2022 05:14:03
Great Post
Love your posts
Many thanks :)
One of my Favourite Albums
Recent searches:
DONATE AVAXHOME:

Donate please!