Loading...
Done
Home > Music > +Rock > Art Rock | Experimental
Posted By : Hkus | Date : 18 Oct 2021 11:05:17 | Comments : 1 |

The Legendary Pink Dots - Seconds Late for the Brighton Line (2010)
1 CD | EAC Rip | FLAC (tracks) + cue + log | 404 MB, 3% Recovery
Covers included | Avantgarde, Experimental | Label: ROIR | Playing time: 1:06:23 | Release date: 2010

After more than 25 years, The Legendary Pink Dots continue to make compelling new music that is demanded by fans and maintains the high level of quality that set their careers in motion. Led by singer/songwriter Edward Ka-Spel and keyboardist/songwriter Phil “Silverman” Knight, the band continues to create their singular brand of modern psychedelia. Edward Ka-Spel’s lyrics breathe with a sagacity and cleverness only found in rock’s greatest writers.


Tracklist:

01. Russian Roulette [5:58]
02. Endless Time [5:24]
03. Leap Of Faith [7:05]
04. Radiation Day [6:01]
05. God And Machines [6:36]
06. No Star Too Far [9:34]
07. Someday [5:50]
08. Hauptbahnhof [6:55]
09. Ascension [13:00]

Personnel:

Edward Ka-Spel
Phil Knight
Erik Drost
Raymond Steeg

EAC LOG
Exact Audio Copy V0.99 prebeta 5 from 4. May 2009

EAC extraction logfile from 17. October 2010, 0:53

The Legendary Pink Dots / Seconds Late For The Brighton Line

Used drive : LITE-ON LTR-40125S Adapter: 4 ID: 1

Read mode : Secure
Utilize accurate stream : Yes
Defeat audio cache : Yes
Make use of C2 pointers : No

Read offset correction : 12
Overread into Lead-In and Lead-Out : No
Fill up missing offset samples with silence : Yes
Delete leading and trailing silent blocks : No
Null samples used in CRC calculations : No
Used interface : Installed external ASPI interface
Gap handling : Appended to previous track

Used output format : User Defined Encoder
Selected bitrate : 1024 kBit/s
Quality : High
Add ID3 tag : No
Command line compressor : C:\Program Files\Exact Audio Copy\FLAC\FLAC.EXE
Additional command line options : --best -f -V -T "ARTIST=%a" -T "TITLE=%t" -T "ALBUM=%g" -T "DATE=%y" -T "TRACKNUMBER=%n" -T "GENRE=%m" -T "COMMENT=%e" %s -o %d

TOC of the extracted CD

Track | Start | Length | Start sector | End sector
---------------------------------------------------------
1 | 0:00.00 | 5:58.34 | 0 | 26883
2 | 5:58.34 | 5:23.63 | 26884 | 51171
3 | 11:22.22 | 7:04.68 | 51172 | 83039
4 | 18:27.15 | 6:01.08 | 83040 | 110122
5 | 24:28.23 | 6:36.28 | 110123 | 139850
6 | 31:04.51 | 9:34.09 | 139851 | 182909
7 | 40:38.60 | 5:49.63 | 182910 | 209147
8 | 46:28.48 | 6:54.43 | 209148 | 240240
9 | 53:23.16 | 12:59.74 | 240241 | 298739

Track 1

Filename Z:\data\mp3\Seeding\Legendary Pink Dots\2010-Seconds Late For The Brighton Line\tracks\01 - Russian roulette.wav

Pre-gap length 0:00:02.00

Peak level 96.6 %
Track quality 100.0 %
Test CRC F9D2375C
Copy CRC F9D2375C
Track not present in AccurateRip database
Copy OK

Track 2

Filename Z:\data\mp3\Seeding\Legendary Pink Dots\2010-Seconds Late For The Brighton Line\tracks\02 - Endless time.wav

Peak level 96.6 %
Track quality 99.9 %
Test CRC 3C4786C8
Copy CRC 3C4786C8
Track not present in AccurateRip database
Copy OK

Track 3

Filename Z:\data\mp3\Seeding\Legendary Pink Dots\2010-Seconds Late For The Brighton Line\tracks\03 - Leap of faith.wav

Peak level 96.6 %
Track quality 100.0 %
Test CRC 25C6117C
Copy CRC 25C6117C
Track not present in AccurateRip database
Copy OK

Track 4

Filename Z:\data\mp3\Seeding\Legendary Pink Dots\2010-Seconds Late For The Brighton Line\tracks\04 - Radiation day.wav

Peak level 96.6 %
Track quality 100.0 %
Test CRC BD530108
Copy CRC BD530108
Track not present in AccurateRip database
Copy OK

Track 5

Filename Z:\data\mp3\Seeding\Legendary Pink Dots\2010-Seconds Late For The Brighton Line\tracks\05 - God and machines.wav

Peak level 96.6 %
Track quality 100.0 %
Test CRC 58BE1818
Copy CRC 58BE1818
Track not present in AccurateRip database
Copy OK

Track 6

Filename Z:\data\mp3\Seeding\Legendary Pink Dots\2010-Seconds Late For The Brighton Line\tracks\06 - No star too far.wav

Peak level 96.6 %
Track quality 99.9 %
Test CRC ABC5C9B5
Copy CRC ABC5C9B5
Track not present in AccurateRip database
Copy OK

Track 7

Filename Z:\data\mp3\Seeding\Legendary Pink Dots\2010-Seconds Late For The Brighton Line\tracks\07 - Someday.wav

Peak level 96.6 %
Track quality 100.0 %
Test CRC 3FFDF300
Copy CRC 3FFDF300
Track not present in AccurateRip database
Copy OK

Track 8

Filename Z:\data\mp3\Seeding\Legendary Pink Dots\2010-Seconds Late For The Brighton Line\tracks\08 - Hauptbahnhof 20-10.wav

Peak level 96.6 %
Track quality 100.0 %
Test CRC 12EE9945
Copy CRC 12EE9945
Track not present in AccurateRip database
Copy OK

Track 9

Filename Z:\data\mp3\Seeding\Legendary Pink Dots\2010-Seconds Late For The Brighton Line\tracks\09 - Ascension.wav

Peak level 96.6 %
Track quality 100.0 %
Test CRC 9F8F6988
Copy CRC 9F8F6988
Track not present in AccurateRip database
Copy OK

None of the tracks are present in the AccurateRip database

No errors occurred

End of status report




All thanks go to hexonut
ADVERTISING » High Speed Download « ADVERTISING




Posted By: omd Date: 18 Oct 2021 14:24:43
THANKSS..........
Recent searches: