Loading...
Done
Home > Music > +Rock > Alternate | Indie
The Smashing Pumpkins - Gish - 1991
Posted By : FTA | Date : 03 Aug 2021 06:28:35 | Comments : 0

The Smashing Pumpkins - Gish - 1991
Alternative | FLAC/CUE/LOG/COVER/GAIN -8 | EAC/CD | 260 MB | 3% RAR

The Smashing Pumpkins is an American alternative rock band that formed in
Chicago, Illinois in 1988. Founded by Billy Corgan (vocals/guitar) and James
Iha (guitar/backing vocals), the band has included D'arcy Wretzky (bass guitar
/backing vocals), Jimmy Chamberlin (drums/percussion), and Melissa Auf der
Maur (bass guitar) among its membership.

Gish is the debut album by American alternative rock band The Smashing Pumpkins.
Released in 1991, frontman Billy Corgan described Gish as a "very spiritual
album." Despite peaking at only number 195 on the Billboard 200 upon its release,
Gish is currently certified platinum by the Recording Industry Association of
America.

Gish was recorded from December 1990 to March 1991 in Butch Vig's Smart Studios
in Madison, Wisconsin. Whereas many albums at the time used drum sampling and
processing, Gish used unprocessed drum recordings, and an exacting, unique guitar
sound. The album was recorded quickly by Pumpkins' standards, largely because of
the group's inexperience.[5] The recording sessions put an intense strain on the
band, with bassist D'arcy Wretzky later commenting that she didn't know how the
band survived it, and Corgan explaining he suffered a nervous breakdown.
The recording cost was $20,000.

Track names:

01 - The Smashing Pumpkins - I Am One
02 - The Smashing Pumpkins - Siva
03 - The Smashing Pumpkins - Rhinoceros
04 - The Smashing Pumpkins - Bury Me
05 - The Smashing Pumpkins - Crush
06 - The Smashing Pumpkins - Suffer
07 - The Smashing Pumpkins - Snail
08 - The Smashing Pumpkins - Tristessa
09 - The Smashing Pumpkins - Window Paine
10 - The Smashing Pumpkins - Daydream

EAC LOG

Exact Audio Copy V0.99 prebeta 5 from XXX

EAC extraction logfile from XXX

Smashing Pumpkins / Gish

Used drive : TSSTcorpCD/DVDW SH-S182D Adapter: 0 ID: 1

Read mode : Secure
Utilize accurate stream : Yes
Defeat audio cache : No
Make use of C2 pointers : No

Read offset correction : 6
Overread into Lead-In and Lead-Out : No
Fill up missing offset samples with silence : Yes
Delete leading and trailing silent blocks : No
Null samples used in CRC calculations : No
Used interface : Native Win32 interface for Win NT & 2000
Gap handling : Appended to previous track

Used output format : User Defined Encoder
Selected bitrate : 1024 kBit/s
Quality : High
Add ID3 tag : No
Command line compressor : C:\Programme\FLAC\flac.exe
Additional command line options : -8 -V -T "artist=%a" -T "title=%t" -T "album=%g" -T "date=%y" -T "tracknumber=%n" -T "genre=%m" -T "comment=FTA" %s


TOC of the extracted CD

Track | Start | Length | Start sector | End sector
---------------------------------------------------------
1 | 0:00.32 | 4:06.73 | 32 | 18554
2 | 4:07.30 | 4:23.02 | 18555 | 38281
3 | 8:30.32 | 6:30.38 | 38282 | 67569
4 | 15:00.70 | 4:48.30 | 67570 | 89199
5 | 19:49.25 | 3:34.57 | 89200 | 105306
6 | 23:24.07 | 5:11.20 | 105307 | 128651
7 | 28:35.27 | 5:11.00 | 128652 | 151976
8 | 33:46.27 | 3:33.45 | 151977 | 167996
9 | 37:19.72 | 5:51.53 | 167997 | 194374
10 | 43:11.50 | 3:07.57 | 194375 | 208456


Track 1

Filename C:\01-Smashing_Pumpkins-I_Am_One.wav

Pre-gap length 0:00:02.32

Peak level 97.7 %
Track quality 100.0 %
Test CRC 28E52CDC
Copy CRC 28E52CDC
Accurately ripped (confidence 51) [D0AC5DE4]
Copy OK

Track 2

Filename C:\02-Smashing_Pumpkins-Siva.wav

Pre-gap length 0:00:00.03

Peak level 97.7 %
Track quality 100.0 %
Test CRC 11BCFE98
Copy CRC 11BCFE98
Accurately ripped (confidence 51) [FBC0993F]
Copy OK

Track 3

Filename C:\03-Smashing_Pumpkins-Rhinoceros.wav

Pre-gap length 0:00:01.00

Peak level 87.5 %
Track quality 99.9 %
Test CRC 1C654133
Copy CRC 1C654133
Accurately ripped (confidence 51) [E4E056A0]
Copy OK

Track 4

Filename C:\04-Smashing_Pumpkins-Bury_Me.wav

Pre-gap length 0:00:00.03

Peak level 97.7 %
Track quality 100.0 %
Test CRC ED5103A9
Copy CRC ED5103A9
Accurately ripped (confidence 52) [A11EC77B]
Copy OK

Track 5

Filename C:\05-Smashing_Pumpkins-Crush.wav

Pre-gap length 0:00:01.50

Peak level 81.3 %
Track quality 100.0 %
Test CRC 46414B05
Copy CRC 46414B05
Accurately ripped (confidence 51) [30BF99CF]
Copy OK

Track 6

Filename C:\06-Smashing_Pumpkins-Suffer.wav

Pre-gap length 0:00:00.02

Peak level 95.3 %
Track quality 100.0 %
Test CRC 3E96511C
Copy CRC 3E96511C
Accurately ripped (confidence 51) [FE1A19B1]
Copy OK

Track 7

Filename C:\07-Smashing_Pumpkins-Snail.wav

Pre-gap length 0:00:00.02

Peak level 97.7 %
Track quality 100.0 %
Test CRC 42AF54CC
Copy CRC 42AF54CC
Accurately ripped (confidence 52) [B8822515]
Copy OK

Track 8

Filename C:\08-Smashing_Pumpkins-Tristessa.wav

Pre-gap length 0:00:02.00

Peak level 97.7 %
Track quality 100.0 %
Test CRC 03FB1D74
Copy CRC 03FB1D74
Accurately ripped (confidence 52) [D7BF5162]
Copy OK

Track 9

Filename C:\09-Smashing_Pumpkins-Window_Paine.wav

Pre-gap length 0:00:00.02

Peak level 97.7 %
Track quality 100.0 %
Test CRC 79D8220B
Copy CRC 79D8220B
Accurately ripped (confidence 52) [6674E27B]
Copy OK

Track 10

Filename C:\10-Smashing_Pumpkins-Daydream.wav

Pre-gap length 0:00:00.03

Peak level 85.8 %
Track quality 100.0 %
Test CRC 33A11A4B
Copy CRC 33A11A4B
Accurately ripped (confidence 52) [2B40CDBC]
Copy OK


All tracks accurately ripped

No errors occurred

End of status report



rapidshare
filefactory

(problems with secured.in ? - !ie &| disable popup blocker)

FlacThemAll

... oh yes and the pw: .RhinoFLACrush
No comments for the news
DONATE AVAXHOME:

Donate please!