Loading...
Done
Home > Music > +Rock
HIM - Screamworks: Love in Theory and Practice (2010)
Posted By : axyli | Date : 04 Feb 2022 13:30:48 | Comments : 1

HIM - Screamworks: Love in Theory and Practice (2010)
FLAC+LOG+CUE | No Covers | 340 Mb
Label: Warner | Genre: Love Metal, Gothic Rock | 47:01 min | 13 tracks


Love in Theory and Practice is the seventh studio album by Finnish rock band HIM, scheduled to be released in the United States on February 9, 2010. It will also be released in Finland on February 5, the United Kingdom and France on February 8, Japan on February 10, and Germany and the Netherlands on February 12. The first single "Heartkiller" was released on December 8, 2009.


EAC Log
Exact Audio Copy V0.99 prebeta 5 from 4. May 2009

EAC extraction logfile from 3. February 2010, 22:19

HIM / Screamworks: Love in Theory and Practice

Used drive : HL-DT-STDVDRAM GH20NS10 Adapter: 3 ID: 1

Read mode : Secure
Utilize accurate stream : Yes
Defeat audio cache : Yes
Make use of C2 pointers : No

Read offset correction : 667
Overread into Lead-In and Lead-Out : No
Fill up missing offset samples with silence : Yes
Delete leading and trailing silent blocks : No
Null samples used in CRC calculations : Yes
Used interface : Native Win32 interface for Win NT & 2000
Gap handling : Appended to previous track

Used output format : User Defined Encoder
Selected bitrate : 320 kBit/s
Quality : High
Add ID3 tag : No
Command line compressor : C:\Program Files (x86)\Exact Audio Copy\Flac\flac.exe
Additional command line options : -V -8 -T "artist=%a" -T "title=%t" -T "album=%g" -T "date=%y" -T "tracknumber=%n" -T "genre=%m" %s


TOC of the extracted CD

Track | Start | Length | Start sector | End sector
---------------------------------------------------------
1 | 0:00.00 | 3:35.54 | 0 | 16178
2 | 3:35.54 | 3:40.71 | 16179 | 32749
3 | 7:16.50 | 3:29.29 | 32750 | 48453
4 | 10:46.04 | 3:32.32 | 48454 | 64385
5 | 14:18.36 | 4:01.67 | 64386 | 82527
6 | 18:20.28 | 3:19.44 | 82528 | 97496
7 | 21:39.72 | 3:26.17 | 97497 | 112963
8 | 25:06.14 | 3:46.52 | 112964 | 129965
9 | 28:52.66 | 3:58.08 | 129966 | 147823
10 | 32:50.74 | 3:51.43 | 147824 | 165191
11 | 36:42.42 | 3:57.44 | 165192 | 183010
12 | 40:40.11 | 3:14.53 | 183011 | 197613
13 | 43:54.64 | 3:13.73 | 197614 | 212161


Track 1

Filename D:\Music\_ripped\HIM - 2010 - Screamworks- Love in Theory and Practice\01 - In Venere Veritas.wav

Pre-gap length 0:00:02.00

Peak level 100.0 %
Track quality 100.0 %
Test CRC 153F0528
Copy CRC 153F0528
Track not present in AccurateRip database
Copy OK

Track 2

Filename D:\Music\_ripped\HIM - 2010 - Screamworks- Love in Theory and Practice\02 - Scared to Death.wav

Peak level 100.0 %
Track quality 100.0 %
Test CRC 1036C591
Copy CRC 1036C591
Track not present in AccurateRip database
Copy OK

Track 3

Filename D:\Music\_ripped\HIM - 2010 - Screamworks- Love in Theory and Practice\03 - Heartkiller.wav

Peak level 100.0 %
Track quality 100.0 %
Test CRC AB42F442
Copy CRC AB42F442
Track not present in AccurateRip database
Copy OK

Track 4

Filename D:\Music\_ripped\HIM - 2010 - Screamworks- Love in Theory and Practice\04 - Dying Song.wav

Peak level 100.0 %
Track quality 100.0 %
Test CRC 8C491AC9
Copy CRC 8C491AC9
Track not present in AccurateRip database
Copy OK

Track 5

Filename D:\Music\_ripped\HIM - 2010 - Screamworks- Love in Theory and Practice\05 - Disarm Me (With Your Loneliness).wav

Peak level 100.0 %
Track quality 100.0 %
Test CRC C1680437
Copy CRC C1680437
Track not present in AccurateRip database
Copy OK

Track 6

Filename D:\Music\_ripped\HIM - 2010 - Screamworks- Love in Theory and Practice\06 - Love, the Hardest Way.wav

Peak level 100.0 %
Track quality 99.9 %
Test CRC 4A72D9A3
Copy CRC 4A72D9A3
Track not present in AccurateRip database
Copy OK

Track 7

Filename D:\Music\_ripped\HIM - 2010 - Screamworks- Love in Theory and Practice\07 - Katherine Wheel.wav

Peak level 100.0 %
Track quality 99.9 %
Test CRC 7548B881
Copy CRC 7548B881
Track not present in AccurateRip database
Copy OK

Track 8

Filename D:\Music\_ripped\HIM - 2010 - Screamworks- Love in Theory and Practice\08 - In the Arms of Rain.wav

Peak level 100.0 %
Track quality 100.0 %
Test CRC BEECE743
Copy CRC BEECE743
Track not present in AccurateRip database
Copy OK

Track 9

Filename D:\Music\_ripped\HIM - 2010 - Screamworks- Love in Theory and Practice\09 - Ode to Solitude.wav

Peak level 100.0 %
Track quality 100.0 %
Test CRC 4CC5742D
Copy CRC 4CC5742D
Track not present in AccurateRip database
Copy OK

Track 10

Filename D:\Music\_ripped\HIM - 2010 - Screamworks- Love in Theory and Practice\10 - Shatter Me with Hope.wav

Peak level 100.0 %
Track quality 100.0 %
Test CRC 5C2F6F19
Copy CRC 5C2F6F19
Track not present in AccurateRip database
Copy OK

Track 11

Filename D:\Music\_ripped\HIM - 2010 - Screamworks- Love in Theory and Practice\11 - Acoustic Funeral (for Love in Limbo).wav

Peak level 100.0 %
Track quality 100.0 %
Test CRC A684B0CC
Copy CRC A684B0CC
Track not present in AccurateRip database
Copy OK

Track 12

Filename D:\Music\_ripped\HIM - 2010 - Screamworks- Love in Theory and Practice\12 - Like St. Valentine.wav

Peak level 100.0 %
Track quality 100.0 %
Test CRC D0052575
Copy CRC D0052575
Track not present in AccurateRip database
Copy OK

Track 13

Filename D:\Music\_ripped\HIM - 2010 - Screamworks- Love in Theory and Practice\13 - The Foreboding Sense of Impending Happiness.wav

Peak level 100.0 %
Track quality 99.9 %
Test CRC E4C77919
Copy CRC E4C77919
Track not present in AccurateRip database
Copy OK


None of the tracks are present in the AccurateRip database

No errors occurred

End of status report


Tracklist

1. In Venere Veritas
2. Scared To Death
3. Heartkiller
4. Dying Song
5. Disarm Me [With Your Loneliness]
6. Love, The Hardest Way
7. Katherine Wheel
8. In The Arms Of Rain
9. Ode To Solitude
10. Shatter Me With Hope
11. Acoustic Funeral (For Love In Limbo)
12. Like St. Valentine
13. The Foreboding Sense Of Impending Happiness

ADVERTISING » Download fast « ADVERTISING
Posted By: napsmear Date: 04 Feb 2022 16:12:42
Better.........
Recent searches:
DONATE AVAXHOME:

Donate please!