Loading...
Done
Home > Music > +Pop
Posted By : thingska | Date : 17 Sep 2021 22:54:27 | Comments : 2 |

Various Artists - Time Life - Malt Shop Memories [10CD Box Set] (2007)
10CD | EAC-Rip | FLAC-tracks +cue +log +Booklet/SCANS | August 7, 2021 | 2.02 Gb
Genre: Pop, Rock | RAR 3% Rec. | Label: Time Life Records | Hotfile, Fileserve

These were my "teen years" and I did not realize what good voices most of the singers had and how beautiful some of the songs were. These cds transport me back to "the good old days". I am surprised that I remember most of the songs. I really, really enjoy this music.


All I Have To Do Is Dream

Tracklist:

CD1
1-1 Everly Brothers, The - All I Have To Do Is Dream 2:19
1-2 Connie Francis - Where The Boys Are 2:40
1-3 Angels, The (3) - My Boyfriend's Back 2:10
1-4 Little Anthony & The Imperials - Goin' Out Of My Head 2:30
1-5 Len Barry - 1-2-3 2:23
1-6 Neil Sedaka - Happy Birthday, Sweet Sixteen 2:37
1-7 Diamonds, The - The Church Bells May Ring 2:20
1-8 Connie Francis - Everybody's Somebody's Fool 2:41
1-9 Mark Dinning - Teen Angel 2:42
1-10 Lloyd Price - Stagger Lee 2:23
1-11 Dee Clark - Raindrops 2:54
1-12 Phil Phillips* & Twilights, The - Sea Of Love 2:24
1-13 Thurston Harris - Little Bitty Pretty One 2:25
1-14 Connie Francis - Lipstick On Your Collar 2:19
1-15 Kalin Twins, The* - When 2:25

CD2
2-1 Martha And The Vandellas - (Love Is Like A) Heat Wave 2:43
2-2 Supremes, The - Come See About Me 2:46
2-3 Temptations, The - The Girl's Alright With Me 2:52
2-4 Platters, The - Twilight Time 2:48
2-5 Jackie Wilson - Lonely Teardrops 2:32
2-6 Marvelettes, The - Please Mr. Postman 2:31
2-7 Mary Wells - Two Lovers 2:48
2-8 Miracles, The - You've Really Got A Hold On Me 2:53
2-9 Martha And The Vandellas - Dancing In The Street 2:40
2-10 Shirelles, The - Dedicated To The One I Love 2:03
2-11 Supremes, The - Baby Love 2:50
2-12 Marvelettes, The - Don't Mess With Bill 2:52
2-13 Righteous Brothers, The - You've Lost That Lovin' Feelin' 3:45
2-14 Mary Wells - My Guy 2:53
2-15 Lee Andrews & The Hearts - Teardrops


Save The Last Dance For Me

Tracklist:

CD1
3-1 Frankie Valli And The Four Seasons* - Big Girls Don't Cry 2:26
3-2 Ben E. King - Stand By Me 3:00
3-3 Bobby Darin - Dream Lover 2:34
3-4 Drifters, The - Save The Loast Dance For Me 2:31
3-5 Bobby Freeman - Do You Wanna Dance 2:36
3-6 Shirelles, The - Will You Love Me Tomorrow 2:44
3-7 Dixie Cups, The - Chapel Of Love 2:48
3-8 Petula Clark - Downtown 3:04
3-9 Drifters, The - This Magic Moment 2:31
3-10 Frankie Valli And The Four Seasons* - Sherry 2:33
3-11 Flamingos, The - I Only Have Eyes For You 3:23
3-12 Joe Jones - You Talk Too Much 2:32
3-13 Barbara Lewis - Hello Stranger 2:42
3-14 Little Anthony And The Imperials* - Tears On My Pillow 2:17
3-15 Jerry Butler And Betty Everett - Let It Be Me 2:42

CD2
4-1 Doris Troy - Just One Look 2:32
4-2 Ad Libs, The - The Boy From New York City 3:08
4-3 Betty Everett - The Shoop Shoop Song (It's In His Kiss) 2:15
4-4 Jerry Butler And The Impressions* - For Your Precious Love 2:46
4-5 Clyde McPhatter - A Lover's Question 2:35
4-6 Shangri-Las, The - Leader Of The Pack 2:59
4-7 Brenda Lee - I'm Sorry 2:42
4-8 Freddie Scott - Hey, Girl 3:10
4-9 Drifters, The - There Goes My Baby 2:12
4-10 Frankie Valli And The Four Seasons* - Dawn (Go Away) 2:49
4-11 Coasters, The - Yakety Yak 1:53
4-12 Cookies, The - Don't Say Nothin' Bad (About My Baby) 2:43
4-13 Shangri-Las, The - Remember (Walkin' In The Sand) 2:18
4-14 Ivory Joe Hunter - Since I Met You Baby 2:52
4-15 Gene Chandler - Duke Of Earl 2:32


Top Down Convertible Sound

Tracklist:

CD1
5-1 Dion & The Belmonts - A Teenager In Love 2:33
5-2 Ruby & The Romantics - Our Day Will Come 2:33
5-3 Fleetwoods, The - Come Softly To Me 2:22
5-4 Bobby Vee - Take Good Care Of My Baby 2:40
5-5 Dion - Runaround Sue 2:52
5-6 Skyliners, The - Since I Don't Have You 2:41
5-7 Jarmels, The - A Little Bit Of Soap 2:16
5-8 Chiffons, The - He's So Fine 1:55
5-9 Bobby Vee - Devil Or Angel 2:21
5-10 Casinos, The - Then You Can Tell Me Goodbye 3:03
5-11 Inex Foxx With Charlie Foxx - Mockingbird 2:42
5-12 Paul And Paula - Hey Paula 2:31
5-13 Rosie & The Originals - Angel Baby 3:46
5-14 Ritchie Valens - Donna 2:29
5-15 Santo & Johnny - Sleep Walk 2:21

CD2
6-1 Beach Boys, The - I Get Around 2:10
6-2 Chiffons, The - One Fine Day 2:08
6-3 Ronny & The Daytonas - G.T.O. 2:31
6-4 Jan & Dean - Surf City 2:29
6-5 Rip Chords, The - Hey Little Cobra 2:04
6-6 Beach Boys, The - California Girls 2:39
6-7 Jan & Dean - The Little Old Lady (From Pasadena) 2:24
6-8 Marcie Blane - Bobby's Girl 2:26
6-9 Ricky Nelson - Poor Little Fool 2:34
6-10 Johnny Burnette - You're Sixteen 1:57
6-11 Reflections, The - (Just Like) Romeo And Juliet 2:21
6-12 Jaynettes, The - Sally, Go 'Round The Roses 2:59
6-13 Beach Boys, The - Help Me, Rhonda 2:46
6-14 Jan & Dean - Dead Man's Curve 2:46
6-15 Eddie Cochran - Summertime Blues 1:57


Jukebox Gems

Tracklist:

CD1
7-1 Lesley Gore - It's My Party 2:16
7-2 Neil Sedaka - Breaking Up Is Hard To Do 2:22
7-3 Tommy Edwards - It's All In The Game 2:39
7-4 Elvis Presley - Are You Lonesome Tonight? 3:08
7-5 Tokens, The - The Lion Sleeps Tonight (Wimoweh) 2:43
7-6 Little Peggy March - I Will Follow Him 2:28
7-7 Toys, The - A Lover's Concerto 2:41
7-8 Kathy Young & Innocents, The (2) - A Thousand Stars 3:14
7-9 Lesley Gore - Judy's Turn To Cry 2:12
7-10 Elvis Presley - Don't Be Cruel 2:04
7-11 Mickey & Sylvia - Love Is Strange 2:55
7-12 Lloyd Price - Personality 2:39
7-13 Jay & The Americans - Come A Little Bit Closer 2:46
7-14 Ray Peterson - Tell Laura I Love Her 2:56
7-15 Shirelles, The - Baby, It's You 2:38

CD1
8-1 Tymes, The - So Much In Love 2:11
8-2 Orlons, The - Don't Hang Up 2:19
8-3 Chubby Checker - The Twist 2:35
8-4 Dovells, The - Bristol Stomp 2:21
8-5 Orlons, The - South Street 2:13
8-6 Dee Dee Sharp* - Ride! 2:26
8-7 Dovells, The - You Can't Sit Down 2:20
8-8 Chubby Checker - Limbo Rock 2:23
8-9 Dee Dee Sharp - Mashed Potato Time 2:32
8-10 Orlons, The - The Wah-Watusi 2:31
8-11 Bobby Rydell - Wild One 2:22
8-12 Charlie Gracie - Butterfly 2:24
8-13 Rays, The - Silhouettes 2:44
8-14 Bobby Rydell - Volare 2:27
8-15 Tymes, The - Wonderful! Wonderful! 2:52


Street Corner Symphonies

Tracklist:

CD1
9-1 Drifters, The - On Broadway 2:59
9-2 Marcels, The - Blue Moon 2:16
9-3 Crests, The - 16 Candles 2:54
9-4 Duprees, The - You Belong To Me 2:45
9-5 Monotones, The - Book Of Love 2:21
9-6 Frankie Lymon And The Teenagers* - Why Do Fools Fall In Love 2:20
9-7 Fiestas, The - So Fine 2:20
9-8 Shep And The Limelites* - Daddy's Home 2:54
9-9 Marvelows, The - I Do 2:27
9-10 Sensations, The (2) - Let Me In 3:07
9-11 Capris, The - There's A Moon Out Tonight 2:14
9-12 Don And Juan* - What's Your Name 2:16
9-13 Silhouettes, The - Get A Job 2:46
9-14 Harvey And The Moonglows* - Ten Commandments Of Love 4:00
9-15 Duprees, The - Have You Heard 2:28

CD2
10-1 Del-Vikings, The - Come Go With Me 2:42
10-2 Diamonds, The - Little Darlin' 2:09
10-3 Randy & The Rainbows - Denise 1:59
10-4 Moonglows, The - Sincerely 3:10
10-5 Dion & The Belmonts - I Wonder Why 2:19
10-6 Five Satins, The - In The Still Of The Nite 3:04
10-7 Elegants, The - Little Star 2:42
10-8 Penguins, The - Earth Angel (Will You Be Mine) 2:56
10-9 Maurice Williams & The Zodiacs - Stay 1:37
10-10 Danleers, The - One Summer Night 2:15
10-11 Earls, The - Remember Then 2:07
10-12 Lee Andrews & The Hearts - Try The Impossible 3:06
10-13 Impalas* - Sorry (I Ran All The Way Home) 2:31
10-14 Sheppards, The - Island Of Love 2:23
10-15 Spaniels, The - Goodnite, Sweetheart, Goodnite 2:40

EAC LOG CD1
Exact Audio Copy V0.99 prebeta 3 from 28. July 2007

EAC extraction logfile from 12. February 2008, 13:05

Various Artists / Malt Shop Memories - All I Have To Do Is Dream

Used drive : PHILIPS DVD+-RW SDVD8820 Adapter: 1 ID: 0

Read mode : Secure
Utilize accurate stream : Yes
Defeat audio cache : Yes
Make use of C2 pointers : No

Read offset correction : 6
Overread into Lead-In and Lead-Out : No
Fill up missing offset samples with silence : Yes
Delete leading and trailing silent blocks : No
Null samples used in CRC calculations : Yes
Used interface : Installed external ASPI interface
Gap handling : Appended to previous track

Used output format : User Defined Encoder
Selected bitrate : 192 kBit/s
Quality : High
Add ID3 tag : Yes
Command line compressor : C:\Program Files\Exact Audio Copy\flac.exe
Additional command line options : -8 -A tukey(0.25) -A gauss(0.1875) -b 4096 -V -T "artist=%a" -T "title=%t" -T "album=%g" -T "date=%y" -T "tracknumber=%n" -T "genre=%m" %s --sector-align

TOC of the extracted CD

Track | Start | Length | Start sector | End sector
---------------------------------------------------------
1 | 0:00.00 | 2:19.18 | 0 | 10442
2 | 2:19.18 | 2:40.23 | 10443 | 22465
3 | 4:59.41 | 2:10.65 | 22466 | 32280
4 | 7:10.31 | 2:30.47 | 32281 | 43577
5 | 9:41.03 | 2:23.67 | 43578 | 54369
6 | 12:04.70 | 2:37.27 | 54370 | 66171
7 | 14:42.22 | 2:20.44 | 66172 | 76715
8 | 17:02.66 | 2:41.03 | 76716 | 88793
9 | 19:43.69 | 2:42.14 | 88794 | 100957
10 | 22:26.08 | 2:23.09 | 100958 | 111691
11 | 24:49.17 | 2:54.30 | 111692 | 124771
12 | 27:43.47 | 2:24.22 | 124772 | 135593
13 | 30:07.69 | 2:25.24 | 135594 | 146492
14 | 32:33.18 | 2:19.49 | 146493 | 156966
15 | 34:52.67 | 2:25.72 | 156967 | 167913

Track 1

Filename C:\Documents and Settings\user\My Documents\EAC Rips\01 - All I Have to do Is Dream FLAC\01-The_Everly_Brothers-All_I_Have_To_Do_Is_Dream.wav

Pre-gap length 0:00:02.00

Peak level 79.3 %
Track quality 100.0 %
Test CRC FDE3EEA7
Copy CRC FDE3EEA7
Accurately ripped (confidence 2) [BC296385]
Copy OK

Track 2

Filename C:\Documents and Settings\user\My Documents\EAC Rips\01 - All I Have to do Is Dream FLAC\02-Connie_Francis-Where_the_Boys_Are.wav

Pre-gap length 0:00:03.16

Peak level 79.4 %
Track quality 100.0 %
Test CRC 1945D296
Copy CRC 1945D296
Accurately ripped (confidence 2) [D323F4B5]
Copy OK

Track 3

Filename C:\Documents and Settings\user\My Documents\EAC Rips\01 - All I Have to do Is Dream FLAC\03-The_Angels-My_Boyfriend's_Back.wav

Pre-gap length 0:00:03.00

Peak level 82.8 %
Track quality 100.0 %
Test CRC 2699DE93
Copy CRC 2699DE93
Accurately ripped (confidence 2) [9CBF6CBB]
Copy OK

Track 4

Filename C:\Documents and Settings\user\My Documents\EAC Rips\01 - All I Have to do Is Dream FLAC\04-Little_Anthony_&_the_Imperials-Goin'_Out_of_My_Head.wav

Pre-gap length 0:00:02.77

Peak level 98.8 %
Track quality 100.0 %
Test CRC 1DD942C7
Copy CRC 1DD942C7
Accurately ripped (confidence 2) [221071BC]
Copy OK

Track 5

Filename C:\Documents and Settings\user\My Documents\EAC Rips\01 - All I Have to do Is Dream FLAC\05-Len_Barry-1-2-3.wav

Pre-gap length 0:00:03.40

Peak level 95.3 %
Track quality 100.0 %
Test CRC 5B502DE4
Copy CRC 5B502DE4
Accurately ripped (confidence 2) [7CF34C49]
Copy OK

Track 6

Filename C:\Documents and Settings\user\My Documents\EAC Rips\01 - All I Have to do Is Dream FLAC\06-Neil_Sedaka-Happy_Birthday,_Sweet_Sixteen.wav

Pre-gap length 0:00:02.38

Peak level 86.3 %
Track quality 100.0 %
Test CRC 961BC7CF
Copy CRC 961BC7CF
Accurately ripped (confidence 2) [0F5362AF]
Copy OK

Track 7

Filename C:\Documents and Settings\user\My Documents\EAC Rips\01 - All I Have to do Is Dream FLAC\07-The_Diamonds-The_Church_Bells_May_Ring.wav

Pre-gap length 0:00:02.45

Peak level 86.8 %
Track quality 100.0 %
Test CRC 917744E1
Copy CRC 917744E1
Accurately ripped (confidence 2) [2066524B]
Copy OK

Track 8

Filename C:\Documents and Settings\user\My Documents\EAC Rips\01 - All I Have to do Is Dream FLAC\08-Connie_Francis-Everybody's_Somebody's_Fool.wav

Pre-gap length 0:00:02.84

Peak level 88.7 %
Track quality 99.9 %
Test CRC 0D5E53F2
Copy CRC 0D5E53F2
Accurately ripped (confidence 2) [29AAA384]
Copy OK

Track 9

Filename C:\Documents and Settings\user\My Documents\EAC Rips\01 - All I Have to do Is Dream FLAC\09-Mark_Dinning-Teen_Angel.wav

Pre-gap length 0:00:02.93

Peak level 100.0 %
Track quality 100.0 %
Test CRC 51096211
Copy CRC 51096211
Accurately ripped (confidence 2) [A3751675]
Copy OK

Track 10

Filename C:\Documents and Settings\user\My Documents\EAC Rips\01 - All I Have to do Is Dream FLAC\10-Lloyd_Price-Stagger_Lee.wav

Pre-gap length 0:00:03.14

Peak level 100.0 %
Track quality 99.9 %
Test CRC 73BC15A3
Copy CRC 73BC15A3
Accurately ripped (confidence 2) [FF6EEAAA]
Copy OK

Track 11

Filename C:\Documents and Settings\user\My Documents\EAC Rips\01 - All I Have to do Is Dream FLAC\11-Dee_Clark-Raindrops.wav

Pre-gap length 0:00:02.68

Peak level 100.0 %
Track quality 100.0 %
Test CRC 59F4FC3A
Copy CRC 59F4FC3A
Accurately ripped (confidence 2) [84C638CC]
Copy OK

Track 12

Filename C:\Documents and Settings\user\My Documents\EAC Rips\01 - All I Have to do Is Dream FLAC\12-Phil_Phillips_&_the_Twilights-Sea_of_Love.wav

Pre-gap length 0:00:02.21

Peak level 85.2 %
Track quality 100.0 %
Test CRC 92BD9DA4
Copy CRC 92BD9DA4
Accurately ripped (confidence 2) [739E1D75]
Copy OK

Track 13

Filename C:\Documents and Settings\user\My Documents\EAC Rips\01 - All I Have to do Is Dream FLAC\13-Thruston_Harris-Little_Bitty_Pretty_One.wav

Pre-gap length 0:00:03.10

Peak level 100.0 %
Track quality 100.0 %
Test CRC AF1231F7
Copy CRC AF1231F7
Accurately ripped (confidence 2) [D04D709C]
Copy OK

Track 14

Filename C:\Documents and Settings\user\My Documents\EAC Rips\01 - All I Have to do Is Dream FLAC\14-Connie_Francis-Lipstick_on_Your_Collar.wav

Pre-gap length 0:00:01.29

Peak level 94.8 %
Track quality 100.0 %
Test CRC B4B4C2CA
Copy CRC B4B4C2CA
Accurately ripped (confidence 2) [8697BD82]
Copy OK

Track 15

Filename C:\Documents and Settings\user\My Documents\EAC Rips\01 - All I Have to do Is Dream FLAC\15-The_Kalin_Twins-When.wav

Pre-gap length 0:00:02.78

Peak level 99.8 %
Track quality 100.0 %
Test CRC 7932A3AB
Copy CRC 7932A3AB
Accurately ripped (confidence 2) [EBA8F7BA]
Copy OK

All tracks accurately ripped

No errors occurred

End of status report

EAC LOG CD2
Exact Audio Copy V0.99 prebeta 3 from 28. July 2007

EAC extraction logfile from 12. February 2008, 13:45

Various Artists / Malt Shop Memories - All I Have To Do Is Dream [Disc 2]

Used drive : PHILIPS DVD+-RW SDVD8820 Adapter: 1 ID: 0

Read mode : Secure
Utilize accurate stream : Yes
Defeat audio cache : Yes
Make use of C2 pointers : No

Read offset correction : 6
Overread into Lead-In and Lead-Out : No
Fill up missing offset samples with silence : Yes
Delete leading and trailing silent blocks : No
Null samples used in CRC calculations : Yes
Used interface : Installed external ASPI interface
Gap handling : Appended to previous track

Used output format : User Defined Encoder
Selected bitrate : 192 kBit/s
Quality : High
Add ID3 tag : Yes
Command line compressor : C:\Program Files\Exact Audio Copy\flac.exe
Additional command line options : -8 -A tukey(0.25) -A gauss(0.1875) -b 4096 -V -T "artist=%a" -T "title=%t" -T "album=%g" -T "date=%y" -T "tracknumber=%n" -T "genre=%m" %s --sector-align

TOC of the extracted CD

Track | Start | Length | Start sector | End sector
---------------------------------------------------------
1 | 0:00.00 | 2:43.68 | 0 | 12292
2 | 2:43.68 | 2:46.31 | 12293 | 24773
3 | 5:30.24 | 2:52.06 | 24774 | 37679
4 | 8:22.30 | 2:48.22 | 37680 | 50301
5 | 11:10.52 | 2:32.35 | 50302 | 61736
6 | 13:43.12 | 2:31.22 | 61737 | 73083
7 | 16:14.34 | 2:48.36 | 73084 | 85719
8 | 19:02.70 | 2:53.26 | 85720 | 98720
9 | 21:56.21 | 2:40.46 | 98721 | 110766
10 | 24:36.67 | 2:03.74 | 110767 | 120065
11 | 26:40.66 | 2:50.06 | 120066 | 132821
12 | 29:30.72 | 2:52.23 | 132822 | 145744
13 | 32:23.20 | 3:45.02 | 145745 | 162621
14 | 36:08.22 | 2:53.09 | 162622 | 175605
15 | 39:01.31 | 2:21.23 | 175606 | 186203

Track 1

Filename C:\Documents and Settings\user\My Documents\EAC Rips\01 - All I Have to do Is Dream FLAC\Disc 2\01-Martha_&_The_Vandellas-(Love_Is_Like_A)_Heat_Wave.wav

Pre-gap length 0:00:02.00

Peak level 100.0 %
Track quality 100.0 %
Test CRC 8B56EDA7
Copy CRC 8B56EDA7
Accurately ripped (confidence 2) [56F8184C]
Copy OK

Track 2

Filename C:\Documents and Settings\user\My Documents\EAC Rips\01 - All I Have to do Is Dream FLAC\Disc 2\02-Supremes-Come_See_About_Me.wav

Pre-gap length 0:00:02.64

Peak level 97.7 %
Track quality 100.0 %
Test CRC 15EC3554
Copy CRC 15EC3554
Accurately ripped (confidence 2) [83774827]
Copy OK

Track 3

Filename C:\Documents and Settings\user\My Documents\EAC Rips\01 - All I Have to do Is Dream FLAC\Disc 2\03-Temptations-The_Girl's_Alright_With_Me.wav

Pre-gap length 0:00:02.93

Peak level 99.3 %
Track quality 100.0 %
Test CRC 91620ABE
Copy CRC 91620ABE
Accurately ripped (confidence 2) [541C7171]
Copy OK

Track 4

Filename C:\Documents and Settings\user\My Documents\EAC Rips\01 - All I Have to do Is Dream FLAC\Disc 2\04-Platters-Twilight_Time.wav

Pre-gap length 0:00:02.56

Peak level 100.0 %
Track quality 100.0 %
Test CRC 20C5E871
Copy CRC 20C5E871
Accurately ripped (confidence 2) [DEBCC6B4]
Copy OK

Track 5

Filename C:\Documents and Settings\user\My Documents\EAC Rips\01 - All I Have to do Is Dream FLAC\Disc 2\05-Jackie_Wilson-Lonely_Teardrops.wav

Pre-gap length 0:00:03.10

Peak level 84.1 %
Track quality 100.0 %
Test CRC 939C8477
Copy CRC 939C8477
Accurately ripped (confidence 2) [A5EDD4D8]
Copy OK

Track 6

Filename C:\Documents and Settings\user\My Documents\EAC Rips\01 - All I Have to do Is Dream FLAC\Disc 2\06-Marvelettes-Please_Mr._Postman.wav

Pre-gap length 0:00:01.89

Peak level 73.8 %
Track quality 100.0 %
Test CRC 90017746
Copy CRC 90017746
Accurately ripped (confidence 2) [8DA1DD79]
Copy OK

Track 7

Filename C:\Documents and Settings\user\My Documents\EAC Rips\01 - All I Have to do Is Dream FLAC\Disc 2\07-Mary_Wells-Two_Lovers.wav

Pre-gap length 0:00:03.04

Peak level 98.1 %
Track quality 100.0 %
Test CRC FC6F702E
Copy CRC FC6F702E
Accurately ripped (confidence 2) [E81B531C]
Copy OK

Track 8

Filename C:\Documents and Settings\user\My Documents\EAC Rips\01 - All I Have to do Is Dream FLAC\Disc 2\08-Miracles-You've_Really_Got_A_Hold_On_Me.wav

Pre-gap length 0:00:02.88

Peak level 97.7 %
Track quality 99.9 %
Test CRC 7A687EEE
Copy CRC 7A687EEE
Accurately ripped (confidence 2) [700808E2]
Copy OK

Track 9

Filename C:\Documents and Settings\user\My Documents\EAC Rips\01 - All I Have to do Is Dream FLAC\Disc 2\09-Martha_&_The_Vandellas-Dancing_In_The_Street.wav

Pre-gap length 0:00:02.20

Peak level 82.5 %
Track quality 100.0 %
Test CRC D1E7920C
Copy CRC D1E7920C
Accurately ripped (confidence 2) [3345C66A]
Copy OK

Track 10

Filename C:\Documents and Settings\user\My Documents\EAC Rips\01 - All I Have to do Is Dream FLAC\Disc 2\10-Shirelles-Dedicated_To_The_One_I_Love.wav

Pre-gap length 0:00:03.29

Peak level 97.4 %
Track quality 100.0 %
Test CRC 1F5100AB
Copy CRC 1F5100AB
Accurately ripped (confidence 2) [8C9AFF8F]
Copy OK

Track 11

Filename C:\Documents and Settings\user\My Documents\EAC Rips\01 - All I Have to do Is Dream FLAC\Disc 2\11-Supremes-Baby_Love.wav

Pre-gap length 0:00:03.44

Peak level 89.7 %
Track quality 100.0 %
Test CRC 0D4C0140
Copy CRC 0D4C0140
Accurately ripped (confidence 2) [F474B2FB]
Copy OK

Track 12

Filename C:\Documents and Settings\user\My Documents\EAC Rips\01 - All I Have to do Is Dream FLAC\Disc 2\12-Marvelettes-Don't_Mess_With_Bill.wav

Pre-gap length 0:00:02.25

Peak level 96.9 %
Track quality 100.0 %
Test CRC EFE64C66
Copy CRC EFE64C66
Accurately ripped (confidence 2) [074761C9]
Copy OK

Track 13

Filename C:\Documents and Settings\user\My Documents\EAC Rips\01 - All I Have to do Is Dream FLAC\Disc 2\13-Righteous_Brothers-You've_Lost_That_Lovin_Feelin.wav

Pre-gap length 0:00:02.01

Peak level 98.0 %
Track quality 100.0 %
Test CRC 2EB0F989
Copy CRC 2EB0F989
Accurately ripped (confidence 2) [730DD219]
Copy OK

Track 14

Filename C:\Documents and Settings\user\My Documents\EAC Rips\01 - All I Have to do Is Dream FLAC\Disc 2\14-Mary_Wells-My_Guy.wav

Pre-gap length 0:00:00.60

Peak level 100.0 %
Track quality 100.0 %
Test CRC 1F1A5982
Copy CRC 1F1A5982
Accurately ripped (confidence 2) [BC98F2A1]
Copy OK

Track 15

Filename C:\Documents and Settings\user\My Documents\EAC Rips\01 - All I Have to do Is Dream FLAC\Disc 2\15-Lee_Andrews_&_The_Hearts-Teardrops.wav

Pre-gap length 0:00:02.97

Peak level 99.9 %
Track quality 100.0 %
Test CRC AA2C70E5
Copy CRC AA2C70E5
Accurately ripped (confidence 2) [FF913A4C]
Copy OK

All tracks accurately ripped

No errors occurred

End of status report

EAC LOG CD3
Exact Audio Copy V0.99 prebeta 3 from 28. July 2007

EAC extraction logfile from 12. February 2008, 14:19

Various Artists / Malt Shop Memories - Save The Last Dance For Me (Disc 1)

Used drive : PHILIPS DVD+-RW SDVD8820 Adapter: 1 ID: 0

Read mode : Secure
Utilize accurate stream : Yes
Defeat audio cache : Yes
Make use of C2 pointers : No

Read offset correction : 6
Overread into Lead-In and Lead-Out : No
Fill up missing offset samples with silence : Yes
Delete leading and trailing silent blocks : No
Null samples used in CRC calculations : Yes
Used interface : Installed external ASPI interface
Gap handling : Appended to previous track

Used output format : User Defined Encoder
Selected bitrate : 192 kBit/s
Quality : High
Add ID3 tag : Yes
Command line compressor : C:\Program Files\Exact Audio Copy\flac.exe
Additional command line options : -8 -A tukey(0.25) -A gauss(0.1875) -b 4096 -V -T "artist=%a" -T "title=%t" -T "album=%g" -T "date=%y" -T "tracknumber=%n" -T "genre=%m" %s --sector-align

TOC of the extracted CD

Track | Start | Length | Start sector | End sector
---------------------------------------------------------
1 | 0:00.00 | 2:26.27 | 0 | 10976
2 | 2:26.27 | 3:00.47 | 10977 | 24523
3 | 5:26.74 | 2:34.64 | 24524 | 36137
4 | 8:01.63 | 2:31.23 | 36138 | 47485
5 | 10:33.11 | 2:36.04 | 47486 | 59189
6 | 13:09.15 | 2:44.23 | 59190 | 71512
7 | 15:53.38 | 2:48.61 | 71513 | 84173
8 | 18:42.24 | 3:04.70 | 84174 | 98043
9 | 21:47.19 | 2:31.07 | 98044 | 109375
10 | 24:18.26 | 2:33.10 | 109376 | 120860
11 | 26:51.36 | 3:23.26 | 120861 | 136111
12 | 30:14.62 | 2:32.62 | 136112 | 147573
13 | 32:47.49 | 2:42.24 | 147574 | 159747
14 | 35:29.73 | 2:17.70 | 159748 | 170092
15 | 37:47.68 | 2:42.52 | 170093 | 182294

Track 1

Filename C:\Documents and Settings\user\My Documents\EAC Rips\02 - Save the Last Dance for Me\disc1\01-Frankie_Valli_and_the_Four_Seasons-Big_Girls_Don't_Cry.wav

Pre-gap length 0:00:02.00

Peak level 91.0 %
Track quality 100.0 %
Test CRC E07F7D9A
Copy CRC E07F7D9A
Accurately ripped (confidence 2) [AD7B45B0]
Copy OK

Track 2

Filename C:\Documents and Settings\user\My Documents\EAC Rips\02 - Save the Last Dance for Me\disc1\02-Ben_E._King-Stand_By_Me.wav

Pre-gap length 0:00:01.48

Peak level 97.0 %
Track quality 99.9 %
Test CRC 138F6CF7
Copy CRC 138F6CF7
Accurately ripped (confidence 2) [62E6B76D]
Copy OK

Track 3

Filename C:\Documents and Settings\user\My Documents\EAC Rips\02 - Save the Last Dance for Me\disc1\03-Bobby_Darin-Dream_Lover.wav

Pre-gap length 0:00:02.30

Peak level 96.8 %
Track quality 100.0 %
Test CRC 14CD565A
Copy CRC 14CD565A
Accurately ripped (confidence 2) [04F3CCF0]
Copy OK

Track 4

Filename C:\Documents and Settings\user\My Documents\EAC Rips\02 - Save the Last Dance for Me\disc1\04-The_Drifters-Save_The_Last_Dance_For_Me.wav

Pre-gap length 0:00:03.84

Peak level 99.3 %
Track quality 100.0 %
Test CRC FD34F2B4
Copy CRC FD34F2B4
Accurately ripped (confidence 2) [4100864F]
Copy OK

Track 5

Filename C:\Documents and Settings\user\My Documents\EAC Rips\02 - Save the Last Dance for Me\disc1\05-Bobby_Freeman-Do_You_Wanna_Dance.wav

Pre-gap length 0:00:02.78

Peak level 84.0 %
Track quality 99.9 %
Test CRC 8A4723A3
Copy CRC 8A4723A3
Accurately ripped (confidence 2) [320F818F]
Copy OK

Track 6

Filename C:\Documents and Settings\user\My Documents\EAC Rips\02 - Save the Last Dance for Me\disc1\06-The_Shirelles-Will_You_Still_Love_Me_Tomorrow.wav

Pre-gap length 0:00:03.33

Peak level 87.5 %
Track quality 100.0 %
Test CRC F21393E6
Copy CRC F21393E6
Accurately ripped (confidence 2) [0003BB95]
Copy OK

Track 7

Filename C:\Documents and Settings\user\My Documents\EAC Rips\02 - Save the Last Dance for Me\disc1\07-The_Dixie_Cups-Chapel_of_Love.wav

Pre-gap length 0:00:03.32

Peak level 88.2 %
Track quality 100.0 %
Test CRC 7600CABE
Copy CRC 7600CABE
Accurately ripped (confidence 2) [B2033B61]
Copy OK

Track 8

Filename C:\Documents and Settings\user\My Documents\EAC Rips\02 - Save the Last Dance for Me\disc1\08-Petula_Clark-Downtown.wav

Pre-gap length 0:00:02.26

Peak level 93.9 %
Track quality 99.9 %
Test CRC 3F208811
Copy CRC 3F208811
Accurately ripped (confidence 2) [1166A53A]
Copy OK

Track 9

Filename C:\Documents and Settings\user\My Documents\EAC Rips\02 - Save the Last Dance for Me\disc1\09-The_Drifters-This_Magic_Moment.wav

Pre-gap length 0:00:03.00

Peak level 89.2 %
Track quality 99.9 %
Test CRC 80425A2B
Copy CRC 80425A2B
Accurately ripped (confidence 2) [114D5814]
Copy OK

Track 10

Filename C:\Documents and Settings\user\My Documents\EAC Rips\02 - Save the Last Dance for Me\disc1\10-Frankie_Valli_and_the_Four_Seasons-Sherry.wav

Pre-gap length 0:00:02.28

Peak level 91.2 %
Track quality 100.0 %
Test CRC B53D9460
Copy CRC B53D9460
Accurately ripped (confidence 2) [5D2AA1ED]
Copy OK

Track 11

Filename C:\Documents and Settings\user\My Documents\EAC Rips\02 - Save the Last Dance for Me\disc1\11-The_Flamingos-I_Only_Have_Eyes_For_You.wav

Pre-gap length 0:00:02.89

Peak level 89.1 %
Track quality 100.0 %
Test CRC A28C8C21
Copy CRC A28C8C21
Accurately ripped (confidence 2) [B1FF9245]
Copy OK

Track 12

Filename C:\Documents and Settings\user\My Documents\EAC Rips\02 - Save the Last Dance for Me\disc1\12-Joe_Jones-You_Talk_Too_Much.wav

Pre-gap length 0:00:02.94

Peak level 84.3 %
Track quality 100.0 %
Test CRC BAD9BCF9
Copy CRC BAD9BCF9
Accurately ripped (confidence 2) [78DFE370]
Copy OK

Track 13

Filename C:\Documents and Settings\user\My Documents\EAC Rips\02 - Save the Last Dance for Me\disc1\13-Barbara_Lewis-You_Talk_Too_Much.wav

Pre-gap length 0:00:03.46

Peak level 89.0 %
Track quality 100.0 %
Test CRC 97D2852C
Copy CRC 97D2852C
Accurately ripped (confidence 2) [68C77D14]
Copy OK

Track 14

Filename C:\Documents and Settings\user\My Documents\EAC Rips\02 - Save the Last Dance for Me\disc1\14-Little_Anthony_and_the_Imperials-Tears_on_My_Pillow.wav

Pre-gap length 0:00:02.18

Peak level 98.5 %
Track quality 100.0 %
Test CRC B9C65388
Copy CRC B9C65388
Accurately ripped (confidence 2) [D6744345]
Copy OK

Track 15

Filename C:\Documents and Settings\user\My Documents\EAC Rips\02 - Save the Last Dance for Me\disc1\15-Jerry_Butler_and_Betty_Everett-Let_It_Be_Me.wav

Pre-gap length 0:00:03.26

Peak level 90.5 %
Track quality 99.9 %
Test CRC B0F58D37
Copy CRC B0F58D37
Accurately ripped (confidence 2) [ECA0E6E5]
Copy OK

All tracks accurately ripped

No errors occurred

End of status report

EAC LOG CD4
Exact Audio Copy V0.99 prebeta 3 from 28. July 2007

EAC extraction logfile from 12. February 2008, 14:52

Various Artists / Malt Shop Memories - Save The Last Dance For Me (Disc 2)

Used drive : PHILIPS DVD+-RW SDVD8820 Adapter: 1 ID: 0

Read mode : Secure
Utilize accurate stream : Yes
Defeat audio cache : Yes
Make use of C2 pointers : No

Read offset correction : 6
Overread into Lead-In and Lead-Out : No
Fill up missing offset samples with silence : Yes
Delete leading and trailing silent blocks : No
Null samples used in CRC calculations : Yes
Used interface : Installed external ASPI interface
Gap handling : Appended to previous track

Used output format : User Defined Encoder
Selected bitrate : 192 kBit/s
Quality : High
Add ID3 tag : Yes
Command line compressor : C:\Program Files\Exact Audio Copy\flac.exe
Additional command line options : -8 -A tukey(0.25) -A gauss(0.1875) -b 4096 -V -T "artist=%a" -T "title=%t" -T "album=%g" -T "date=%y" -T "tracknumber=%n" -T "genre=%m" %s --sector-align

TOC of the extracted CD

Track | Start | Length | Start sector | End sector
---------------------------------------------------------
1 | 0:00.00 | 2:32.05 | 0 | 11404
2 | 2:32.05 | 3:08.18 | 11405 | 25522
3 | 5:40.23 | 2:15.73 | 25523 | 35720
4 | 7:56.21 | 2:46.23 | 35721 | 48193
5 | 10:42.44 | 2:35.64 | 48194 | 59882
6 | 13:18.33 | 2:59.09 | 59883 | 73316
7 | 16:17.42 | 2:42.56 | 73317 | 85522
8 | 19:00.23 | 3:10.28 | 85523 | 99800
9 | 22:10.51 | 2:12.16 | 99801 | 109716
10 | 24:22.67 | 2:49.48 | 109717 | 122439
11 | 27:12.40 | 1:53.25 | 122440 | 130939
12 | 29:05.65 | 2:43.38 | 130940 | 143202
13 | 31:49.28 | 2:18.33 | 143203 | 153585
14 | 34:07.61 | 2:52.01 | 153586 | 166486
15 | 36:59.62 | 2:32.18 | 166487 | 177904

Track 1

Filename C:\Documents and Settings\user\My Documents\EAC Rips\02 - Save the Last Dance for Me\Disc 2\01-Doris_Troy-Just_One_Look.wav

Pre-gap length 0:00:02.00

Peak level 98.0 %
Track quality 99.9 %
Test CRC 19D85F5B
Copy CRC 19D85F5B
Accurately ripped (confidence 2) [22C9F075]
Copy OK

Track 2

Filename C:\Documents and Settings\user\My Documents\EAC Rips\02 - Save the Last Dance for Me\Disc 2\02-Ad_Libs-The_Boy_From_New_York_City.wav

Pre-gap length 0:00:03.09

Peak level 70.2 %
Track quality 100.0 %
Test CRC DC2B2956
Copy CRC DC2B2956
Accurately ripped (confidence 2) [4732E2C6]
Copy OK

Track 3

Filename C:\Documents and Settings\user\My Documents\EAC Rips\02 - Save the Last Dance for Me\Disc 2\03-Betty_Everett-The_Shoop_Shoop_Song_(It's_In_His_Kiss).wav

Pre-gap length 0:00:03.00

Peak level 83.5 %
Track quality 100.0 %
Test CRC 18DEEF12
Copy CRC 18DEEF12
Accurately ripped (confidence 2) [88513ABD]
Copy OK

Track 4

Filename C:\Documents and Settings\user\My Documents\EAC Rips\02 - Save the Last Dance for Me\Disc 2\04-Jerry_Butler_and_the_Impressions-For_Your_Precious_Love.wav

Pre-gap length 0:00:02.25

Peak level 100.0 %
Track quality 100.0 %
Test CRC DF72F626
Copy CRC DF72F626
Accurately ripped (confidence 2) [5C344407]
Copy OK

Track 5

Filename C:\Documents and Settings\user\My Documents\EAC Rips\02 - Save the Last Dance for Me\Disc 2\05-Clyde_McPhatter-A_Lover's_Question.wav

Pre-gap length 0:00:02.86

Peak level 79.4 %
Track quality 100.0 %
Test CRC 793B0AF1
Copy CRC 793B0AF1
Accurately ripped (confidence 2) [1017CB9E]
Copy OK

Track 6

Filename C:\Documents and Settings\user\My Documents\EAC Rips\02 - Save the Last Dance for Me\Disc 2\06-Shangri-Las-Leader_of_the_Pack.wav

Pre-gap length 0:00:02.97

Peak level 86.5 %
Track quality 100.0 %
Test CRC 39268FAB
Copy CRC 39268FAB
Accurately ripped (confidence 2) [810B332C]
Copy OK

Track 7

Filename C:\Documents and Settings\user\My Documents\EAC Rips\02 - Save the Last Dance for Me\Disc 2\07-Brenda_Lee-I'm_Sorry.wav

Pre-gap length 0:00:02.52

Peak level 98.2 %
Track quality 100.0 %
Test CRC 46B160DD
Copy CRC 46B160DD
Accurately ripped (confidence 2) [54DFD45B]
Copy OK

Track 8

Filename C:\Documents and Settings\user\My Documents\EAC Rips\02 - Save the Last Dance for Me\Disc 2\08-Freddie_Scott-Hey_Girl.wav

Pre-gap length 0:00:02.81

Peak level 87.6 %
Track quality 100.0 %
Test CRC CEA27179
Copy CRC CEA27179
Accurately ripped (confidence 2) [8A8C8867]
Copy OK

Track 9

Filename C:\Documents and Settings\user\My Documents\EAC Rips\02 - Save the Last Dance for Me\Disc 2\09-Drifters-There_Goes_My_Baby.wav

Pre-gap length 0:00:02.53

Peak level 92.4 %
Track quality 100.0 %
Test CRC BA86748B
Copy CRC BA86748B
Accurately ripped (confidence 2) [A5F3041A]
Copy OK

Track 10

Filename C:\Documents and Settings\user\My Documents\EAC Rips\02 - Save the Last Dance for Me\Disc 2\10-Frankie_Valli_and_the_Four_Seasons-Dawn_(Go_Away).wav

Pre-gap length 0:00:03.09

Peak level 100.0 %
Track quality 100.0 %
Test CRC 82B7F646
Copy CRC 82B7F646
Accurately ripped (confidence 2) [E6A40867]
Copy OK

Track 11

Filename C:\Documents and Settings\user\My Documents\EAC Rips\02 - Save the Last Dance for Me\Disc 2\11-Coasters-Yakety_Yak.wav

Pre-gap length 0:00:02.21

Peak level 74.5 %
Track quality 100.0 %
Test CRC AA3ECC1A
Copy CRC AA3ECC1A
Accurately ripped (confidence 2) [5480A772]
Copy OK

Track 12

Filename C:\Documents and Settings\user\My Documents\EAC Rips\02 - Save the Last Dance for Me\Disc 2\12-Cookies-Don't_Say_Nothin'_Bad_(About_My_Baby).wav

Pre-gap length 0:00:03.04

Peak level 83.5 %
Track quality 100.0 %
Test CRC 447814C8
Copy CRC 447814C8
Accurately ripped (confidence 2) [B8FD741F]
Copy OK

Track 13

Filename C:\Documents and Settings\user\My Documents\EAC Rips\02 - Save the Last Dance for Me\Disc 2\13-Shangri-Las-Remember_(Walkin'_In_The_Sand).wav

Pre-gap length 0:00:02.40

Peak level 98.2 %
Track quality 100.0 %
Test CRC 2636C8DF
Copy CRC 2636C8DF
Accurately ripped (confidence 2) [3DBF94CE]
Copy OK

Track 14

Filename C:\Documents and Settings\user\My Documents\EAC Rips\02 - Save the Last Dance for Me\Disc 2\14-Ivory_Joe_Hunter-Since_I_Met_You_Baby.wav

Pre-gap length 0:00:02.65

Peak level 87.5 %
Track quality 99.9 %
Test CRC C0C3E118
Copy CRC C0C3E118
Accurately ripped (confidence 2) [A251FE62]
Copy OK

Track 15

Filename C:\Documents and Settings\user\My Documents\EAC Rips\02 - Save the Last Dance for Me\Disc 2\15-Gene_Chandler-Duke_of_Earl.wav

Pre-gap length 0:00:03.14

Peak level 94.4 %
Track quality 100.0 %
Test CRC 5F987473
Copy CRC 5F987473
Accurately ripped (confidence 2) [B809C9D5]
Copy OK

All tracks accurately ripped

No errors occurred

End of status report

EAC LOG CD5
Exact Audio Copy V0.99 prebeta 3 from 28. July 2007

EAC extraction logfile from 12. February 2008, 15:32

Various Artists / Malt Shop Memories - Top Down Convertible Sound (Disc 1)

Used drive : PHILIPS DVD+-RW SDVD8820 Adapter: 1 ID: 0

Read mode : Secure
Utilize accurate stream : Yes
Defeat audio cache : Yes
Make use of C2 pointers : No

Read offset correction : 6
Overread into Lead-In and Lead-Out : No
Fill up missing offset samples with silence : Yes
Delete leading and trailing silent blocks : No
Null samples used in CRC calculations : Yes
Used interface : Installed external ASPI interface
Gap handling : Appended to previous track

Used output format : User Defined Encoder
Selected bitrate : 192 kBit/s
Quality : High
Add ID3 tag : Yes
Command line compressor : C:\Program Files\Exact Audio Copy\flac.exe
Additional command line options : -8 -A tukey(0.25) -A gauss(0.1875) -b 4096 -V -T "artist=%a" -T "title=%t" -T "album=%g" -T "date=%y" -T "tracknumber=%n" -T "genre=%m" %s --sector-align

TOC of the extracted CD

Track | Start | Length | Start sector | End sector
---------------------------------------------------------
1 | 0:00.00 | 2:33.60 | 0 | 11534
2 | 2:33.60 | 2:33.02 | 11535 | 23011
3 | 5:06.62 | 2:22.15 | 23012 | 33676
4 | 7:29.02 | 2:40.57 | 33677 | 45733
5 | 10:09.59 | 2:52.31 | 45734 | 58664
6 | 13:02.15 | 2:41.52 | 58665 | 70791
7 | 15:43.67 | 2:16.72 | 70792 | 81063
8 | 18:00.64 | 1:55.24 | 81064 | 89712
9 | 19:56.13 | 2:21.35 | 89713 | 100322
10 | 22:17.48 | 3:03.62 | 100323 | 114109
11 | 25:21.35 | 2:42.11 | 114110 | 126270
12 | 28:03.46 | 2:31.40 | 126271 | 137635
13 | 30:35.11 | 3:46.62 | 137636 | 154647
14 | 34:21.73 | 2:29.28 | 154648 | 165850
15 | 36:51.26 | 2:21.55 | 165851 | 176480

Track 1

Filename C:\Documents and Settings\user\My Documents\EAC Rips\03 - Top Down Convertible Sound\Disc 1\01-Dion_&_the_Belmonts-A_Teenager_In_Love.wav

Pre-gap length 0:00:02.00

Peak level 89.1 %
Track quality 100.0 %
Test CRC 3B067133
Copy CRC 3B067133
Accurately ripped (confidence 1) [F324B4EB]
Copy OK

Track 2

Filename C:\Documents and Settings\user\My Documents\EAC Rips\03 - Top Down Convertible Sound\Disc 1\02-Ruby_&_the_Romantics-Our_Day_Will_Come.wav

Pre-gap length 0:00:02.38

Peak level 87.7 %
Track quality 100.0 %
Test CRC 6E4D0828
Copy CRC 6E4D0828
Accurately ripped (confidence 1) [B8B4DC5E]
Copy OK

Track 3

Filename C:\Documents and Settings\user\My Documents\EAC Rips\03 - Top Down Convertible Sound\Disc 1\03-The_Fleetwoods-Come_Softly_to_Me.wav

Pre-gap length 0:00:03.21

Peak level 91.7 %
Track quality 100.0 %
Test CRC 3EA1D689
Copy CRC 3EA1D689
Accurately ripped (confidence 1) [0C931E47]
Copy OK

Track 4

Filename C:\Documents and Settings\user\My Documents\EAC Rips\03 - Top Down Convertible Sound\Disc 1\04-Bobby_Vee-Take_Good_Care_of_My_Baby.wav

Pre-gap length 0:00:02.74

Peak level 89.1 %
Track quality 100.0 %
Test CRC 6DA5A194
Copy CRC 6DA5A194
Accurately ripped (confidence 1) [EB6E85C5]
Copy OK

Track 5

Filename C:\Documents and Settings\user\My Documents\EAC Rips\03 - Top Down Convertible Sound\Disc 1\05-Dion-Runaround_Sue.wav

Pre-gap length 0:00:03.12

Peak level 87.1 %
Track quality 100.0 %
Test CRC EED24538
Copy CRC EED24538
Accurately ripped (confidence 1) [0DE87981]
Copy OK

Track 6

Filename C:\Documents and Settings\user\My Documents\EAC Rips\03 - Top Down Convertible Sound\Disc 1\06-The_Skyliners-Since_I_Don't_Have_You.wav

Pre-gap length 0:00:02.61

Peak level 84.1 %
Track quality 99.9 %
Test CRC 84896D93
Copy CRC 84896D93
Accurately ripped (confidence 1) [EDC2EFF3]
Copy OK

Track 7

Filename C:\Documents and Settings\user\My Documents\EAC Rips\03 - Top Down Convertible Sound\Disc 1\07-The_Jarnels-A_Little_Bit_of_Soap.wav

Pre-gap length 0:00:03.14

Peak level 89.6 %
Track quality 100.0 %
Test CRC 12AF0E96
Copy CRC 12AF0E96
Accurately ripped (confidence 1) [EB15236B]
Copy OK

Track 8

Filename C:\Documents and Settings\user\My Documents\EAC Rips\03 - Top Down Convertible Sound\Disc 1\08-The_Chiftons-He's_So_Fine.wav

Pre-gap length 0:00:02.93

Peak level 76.3 %
Track quality 100.0 %
Test CRC BD953D47
Copy CRC BD953D47
Accurately ripped (confidence 1) [96D6EDDF]
Copy OK

Track 9

Filename C:\Documents and Settings\user\My Documents\EAC Rips\03 - Top Down Convertible Sound\Disc 1\09-Bobby_Vee-Devil_or_Angel.wav

Pre-gap length 0:00:02.90

Peak level 91.4 %
Track quality 99.9 %
Test CRC 2FDA24DE
Copy CRC 2FDA24DE
Accurately ripped (confidence 1) [4CCACA51]
Copy OK

Track 10

Filename C:\Documents and Settings\user\My Documents\EAC Rips\03 - Top Down Convertible Sound\Disc 1\10-The_Casinos-Then_You_Can_Tell_Me_Goodbye.wav

Pre-gap length 0:00:03.10

Peak level 88.2 %
Track quality 100.0 %
Test CRC DFDC9B47
Copy CRC DFDC9B47
Accurately ripped (confidence 1) [633F7D76]
Copy OK

Track 11

Filename C:\Documents and Settings\user\My Documents\EAC Rips\03 - Top Down Convertible Sound\Disc 1\11-Inez_Foxx_with_Charlie_Foxx-Mockingbird.wav

Pre-gap length 0:00:03.13

Peak level 100.0 %
Track quality 100.0 %
Test CRC F6474DDF
Copy CRC F6474DDF
Accurately ripped (confidence 1) [1BD30C6E]
Copy OK

Track 12

Filename C:\Documents and Settings\user\My Documents\EAC Rips\03 - Top Down Convertible Sound\Disc 1\12-Paul_and_Paula-Hey_Paula.wav

Pre-gap length 0:00:02.02

Peak level 96.2 %
Track quality 100.0 %
Test CRC F12AEC27
Copy CRC F12AEC27
Accurately ripped (confidence 1) [378FA186]
Copy OK

Track 13

Filename C:\Documents and Settings\user\My Documents\EAC Rips\03 - Top Down Convertible Sound\Disc 1\13-Rosie_&_the_Originals-Angel_Baby.wav

Pre-gap length 0:00:02.76

Peak level 89.1 %
Track quality 100.0 %
Test CRC A3BDE426
Copy CRC A3BDE426
Accurately ripped (confidence 1) [B0293A2F]
Copy OK

Track 14

Filename C:\Documents and Settings\user\My Documents\EAC Rips\03 - Top Down Convertible Sound\Disc 1\14-Ritchie_Valens-Donna.wav

Pre-gap length 0:00:03.00

Peak level 70.7 %
Track quality 100.0 %
Test CRC E650794C
Copy CRC E650794C
Accurately ripped (confidence 1) [939B78A3]
Copy OK

Track 15

Filename C:\Documents and Settings\user\My Documents\EAC Rips\03 - Top Down Convertible Sound\Disc 1\15-Santo_&_Johnny-Sleep_Walk.wav

Pre-gap length 0:00:02.17

Peak level 97.1 %
Track quality 100.0 %
Test CRC ABBB1B75
Copy CRC ABBB1B75
Accurately ripped (confidence 1) [575C3DDA]
Copy OK

All tracks accurately ripped

No errors occurred

End of status report

EAC LOG CD6
Exact Audio Copy V0.99 prebeta 3 from 28. July 2007

EAC extraction logfile from 12. February 2008, 18:59

Various Artists / Malt Shop Memories - Top Down Convertible Sound (Disc 2)

Used drive : PHILIPS DVD+-RW SDVD8820 Adapter: 1 ID: 0

Read mode : Secure
Utilize accurate stream : Yes
Defeat audio cache : Yes
Make use of C2 pointers : No

Read offset correction : 6
Overread into Lead-In and Lead-Out : No
Fill up missing offset samples with silence : Yes
Delete leading and trailing silent blocks : No
Null samples used in CRC calculations : Yes
Used interface : Installed external ASPI interface
Gap handling : Appended to previous track

Used output format : User Defined Encoder
Selected bitrate : 192 kBit/s
Quality : High
Add ID3 tag : Yes
Command line compressor : C:\Program Files\Exact Audio Copy\flac.exe
Additional command line options : -8 -A tukey(0.25) -A gauss(0.1875) -b 4096 -V -T "artist=%a" -T "title=%t" -T "album=%g" -T "date=%y" -T "tracknumber=%n" -T "genre=%m" %s --sector-align

TOC of the extracted CD

Track | Start | Length | Start sector | End sector
---------------------------------------------------------
1 | 0:00.00 | 2:10.44 | 0 | 9793
2 | 2:10.44 | 2:08.31 | 9794 | 19424
3 | 4:19.00 | 2:31.49 | 19425 | 30798
4 | 6:50.49 | 2:29.49 | 30799 | 42022
5 | 9:20.23 | 2:04.27 | 42023 | 51349
6 | 11:24.50 | 2:39.20 | 51350 | 63294
7 | 14:03.70 | 2:24.17 | 63295 | 74111
8 | 16:28.12 | 2:26.23 | 74112 | 85084
9 | 18:54.35 | 2:34.38 | 85085 | 96672
10 | 21:28.73 | 1:57.35 | 96673 | 105482
11 | 23:26.33 | 2:21.73 | 105483 | 116130
12 | 25:48.31 | 2:59.42 | 116131 | 129597
13 | 28:47.73 | 2:46.73 | 129598 | 142120
14 | 31:34.71 | 2:46.61 | 142121 | 154631
15 | 34:21.57 | 1:57.09 | 154632 | 163415

Track 1

Filename C:\Documents and Settings\user\My Documents\EAC Rips\03 - Top Down Convertible Sound\Disc 2\01-Beach_Boys-I_Get_Around.wav

Pre-gap length 0:00:02.00

Peak level 98.5 %
Track quality 100.0 %
Test CRC 58D0D8A0
Copy CRC 58D0D8A0
Accurately ripped (confidence 3) [4F0522D9]
Copy OK

Track 2

Filename C:\Documents and Settings\user\My Documents\EAC Rips\03 - Top Down Convertible Sound\Disc 2\02-The_Chiffons-One_Fine_Day.wav

Pre-gap length 0:00:01.78

Peak level 83.5 %
Track quality 100.0 %
Test CRC AF57E0C0
Copy CRC AF57E0C0
Accurately ripped (confidence 3) [86815730]
Copy OK

Track 3

Filename C:\Documents and Settings\user\My Documents\EAC Rips\03 - Top Down Convertible Sound\Disc 2\03-Ronny_&_the_Daytonas-G.T.O..wav

Pre-gap length 0:00:02.36

Peak level 88.9 %
Track quality 100.0 %
Test CRC 7E2FC032
Copy CRC 7E2FC032
Accurately ripped (confidence 3) [D3616FF2]
Copy OK

Track 4

Filename C:\Documents and Settings\user\My Documents\EAC Rips\03 - Top Down Convertible Sound\Disc 2\04-Jan_&_Dean-Surf_City.wav

Pre-gap length 0:00:02.77

Peak level 100.0 %
Track quality 100.0 %
Test CRC 05511D20
Copy CRC 05511D20
Accurately ripped (confidence 3) [4257CEE1]
Copy OK

Track 5

Filename C:\Documents and Settings\user\My Documents\EAC Rips\03 - Top Down Convertible Sound\Disc 2\05-The_Rip_Chords-Hey_Little_cobra.wav

Pre-gap length 0:00:03.04

Peak level 100.0 %
Track quality 100.0 %
Test CRC 39140D4F
Copy CRC 39140D4F
Accurately ripped (confidence 3) [83101672]
Copy OK

Track 6

Filename C:\Documents and Settings\user\My Documents\EAC Rips\03 - Top Down Convertible Sound\Disc 2\06-Beach_Boys-California_Girls.wav

Pre-gap length 0:00:01.60

Peak level 98.2 %
Track quality 100.0 %
Test CRC 1BC37D84
Copy CRC 1BC37D84
Accurately ripped (confidence 3) [BB977063]
Copy OK

Track 7

Filename C:\Documents and Settings\user\My Documents\EAC Rips\03 - Top Down Convertible Sound\Disc 2\07-Jan_&_Dean-The_Little_Old_Lady_(from_Pasadena).wav

Pre-gap length 0:00:02.97

Peak level 95.4 %
Track quality 100.0 %
Test CRC 0B851EFE
Copy CRC 0B851EFE
Accurately ripped (confidence 3) [27028082]
Copy OK

Track 8

Filename C:\Documents and Settings\user\My Documents\EAC Rips\03 - Top Down Convertible Sound\Disc 2\08-Marcie_Blane-Bobby's_Girl.wav

Pre-gap length 0:00:01.41

Peak level 94.7 %
Track quality 100.0 %
Test CRC 6B2D8BEC
Copy CRC 6B2D8BEC
Accurately ripped (confidence 3) [DF5E1E5E]
Copy OK

Track 9

Filename C:\Documents and Settings\user\My Documents\EAC Rips\03 - Top Down Convertible Sound\Disc 2\09-Ricky_Nelson-Poor_Little_Fool.wav

Pre-gap length 0:00:02.60

Peak level 100.0 %
Track quality 100.0 %
Test CRC 56B05A70
Copy CRC 56B05A70
Accurately ripped (confidence 3) [7B9887EF]
Copy OK

Track 10

Filename C:\Documents and Settings\user\My Documents\EAC Rips\03 - Top Down Convertible Sound\Disc 2\10-Johnny_Burnette-You're_Sixteen.wav

Pre-gap length 0:00:02.45

Peak level 74.9 %
Track quality 100.0 %
Test CRC EF68A1F1
Copy CRC EF68A1F1
Accurately ripped (confidence 3) [169D7521]
Copy OK

Track 11

Filename C:\Documents and Settings\user\My Documents\EAC Rips\03 - Top Down Convertible Sound\Disc 2\11-The_Reflections-(Just_Like)_Romeo_&_Juliet.wav

Pre-gap length 0:00:02.88

Peak level 100.0 %
Track quality 100.0 %
Test CRC A5EB541E
Copy CRC A5EB541E
Accurately ripped (confidence 3) [170BE16E]
Copy OK

Track 12

Filename C:\Documents and Settings\user\My Documents\EAC Rips\03 - Top Down Convertible Sound\Disc 2\12-The_Jaynettes-Sally,_Go_'Round_the_Roses.wav

Pre-gap length 0:00:01.88

Peak level 93.7 %
Track quality 100.0 %
Test CRC 62F5BE43
Copy CRC 62F5BE43
Accurately ripped (confidence 3) [53CDC50B]
Copy OK

Track 13

Filename C:\Documents and Settings\user\My Documents\EAC Rips\03 - Top Down Convertible Sound\Disc 2\13-Beach_Boys-Help_Me,_Rhonda.wav

Pre-gap length 0:00:03.08

Peak level 99.9 %
Track quality 100.0 %
Test CRC CF6C0939
Copy CRC CF6C0939
Accurately ripped (confidence 3) [EE827089]
Copy OK

Track 14

Filename C:\Documents and Settings\user\My Documents\EAC Rips\03 - Top Down Convertible Sound\Disc 2\14-Jan_&_Dean-Dead_Man's_Curve.wav

Pre-gap length 0:00:03.06

Peak level 95.5 %
Track quality 100.0 %
Test CRC F37F0F4F
Copy CRC F37F0F4F
Accurately ripped (confidence 3) [9BD8B6A5]
Copy OK

Track 15

Filename C:\Documents and Settings\user\My Documents\EAC Rips\03 - Top Down Convertible Sound\Disc 2\15-Eddie_Cochran-Summertime_Blues.wav

Pre-gap length 0:00:01.89

Peak level 99.1 %
Track quality 100.0 %
Test CRC C64D299C
Copy CRC C64D299C
Accurately ripped (confidence 3) [44008779]
Copy OK

All tracks accurately ripped

No errors occurred

End of status report

EAC LOG CD7
Exact Audio Copy V0.99 prebeta 3 from 28. July 2007

EAC extraction logfile from 13. February 2008, 10:50

Various Artists / Malt Shop Memories - Jukebox Gems (Disc 1)

Used drive : PHILIPS DVD+-RW SDVD8820 Adapter: 1 ID: 0

Read mode : Secure
Utilize accurate stream : Yes
Defeat audio cache : Yes
Make use of C2 pointers : No

Read offset correction : 6
Overread into Lead-In and Lead-Out : No
Fill up missing offset samples with silence : Yes
Delete leading and trailing silent blocks : No
Null samples used in CRC calculations : Yes
Used interface : Installed external ASPI interface
Gap handling : Appended to previous track

Used output format : User Defined Encoder
Selected bitrate : 192 kBit/s
Quality : High
Add ID3 tag : Yes
Command line compressor : C:\Program Files\Exact Audio Copy\flac.exe
Additional command line options : -8 -A tukey(0.25) -A gauss(0.1875) -b 4096 -V -T "artist=%a" -T "title=%t" -T "album=%g" -T "date=%y" -T "tracknumber=%n" -T "genre=%m" %s --sector-align

TOC of the extracted CD

Track | Start | Length | Start sector | End sector
---------------------------------------------------------
1 | 0:00.00 | 2:16.47 | 0 | 10246
2 | 2:16.47 | 2:22.59 | 10247 | 20955
3 | 4:39.31 | 2:39.49 | 20956 | 32929
4 | 7:19.05 | 3:08.21 | 32930 | 47050
5 | 10:27.26 | 2:43.02 | 47051 | 59277
6 | 13:10.28 | 2:28.26 | 59278 | 70403
7 | 15:38.54 | 2:41.29 | 70404 | 82507
8 | 18:20.08 | 3:14.42 | 82508 | 97099
9 | 21:34.50 | 2:12.08 | 97100 | 107007
10 | 23:46.58 | 2:04.17 | 107008 | 116324
11 | 25:51.00 | 2:55.57 | 116325 | 129506
12 | 28:46.57 | 2:39.11 | 129507 | 141442
13 | 31:25.68 | 2:46.63 | 141443 | 153955
14 | 34:12.56 | 2:56.22 | 153956 | 167177
15 | 37:09.03 | 2:38.24 | 167178 | 179051

Track 1

Filename C:\Documents and Settings\user\My Documents\EAC Rips\04- - Jukebox Gems\Disc 1\01-Lesley_Gore-It's_My_Party.wav

Pre-gap length 0:00:02.00

Peak level 97.6 %
Track quality 100.0 %
Test CRC AE4B9E0A
Copy CRC AE4B9E0A
Accurately ripped (confidence 2) [EDFB4D6F]
Copy OK

Track 2

Filename C:\Documents and Settings\user\My Documents\EAC Rips\04- - Jukebox Gems\Disc 1\02-Neil_Sedaka-Breaking_Up_Is_Hard_To_Do.wav

Pre-gap length 0:00:02.46

Peak level 100.0 %
Track quality 99.9 %
Test CRC A50315A5
Copy CRC A50315A5
Accurately ripped (confidence 2) [D68DCE11]
Copy OK

Track 3

Filename C:\Documents and Settings\user\My Documents\EAC Rips\04- - Jukebox Gems\Disc 1\03-Tommy_Edwards-It's_All_In_The_Game.wav

Pre-gap length 0:00:01.69

Peak level 100.0 %
Track quality 100.0 %
Test CRC A54C5248
Copy CRC A54C5248
Accurately ripped (confidence 2) [1ECE2D98]
Copy OK

Track 4

Filename C:\Documents and Settings\user\My Documents\EAC Rips\04- - Jukebox Gems\Disc 1\04-Elvis_Presley-Are_You_Lonesome_Tonight.wav

Pre-gap length 0:00:03.73

Peak level 98.0 %
Track quality 99.9 %
Test CRC C8C1B590
Copy CRC C8C1B590
Accurately ripped (confidence 2) [5EB9FAEF]
Copy OK

Track 5

Filename C:\Documents and Settings\user\My Documents\EAC Rips\04- - Jukebox Gems\Disc 1\05-The_Tokens-The_Lion_Sleeps_Tonight_(Wimoweh).wav

Pre-gap length 0:00:02.45

Peak level 84.1 %
Track quality 99.9 %
Test CRC CFEC4A51
Copy CRC CFEC4A51
Accurately ripped (confidence 2) [C4131274]
Copy OK

Track 6

Filename C:\Documents and Settings\user\My Documents\EAC Rips\04- - Jukebox Gems\Disc 1\06-Little_Peggy_March-I_Will_Follow_Him.wav

Pre-gap length 0:00:03.22

Peak level 84.0 %
Track quality 100.0 %
Test CRC C2E13EA1
Copy CRC C2E13EA1
Accurately ripped (confidence 2) [BA721265]
Copy OK

Track 7

Filename C:\Documents and Settings\user\My Documents\EAC Rips\04- - Jukebox Gems\Disc 1\07-The_Toys-A_Lover's_Concerto.wav

Pre-gap length 0:00:02.89

Peak level 93.3 %
Track quality 99.9 %
Test CRC 46F70ACB
Copy CRC 46F70ACB
Accurately ripped (confidence 2) [6670345E]
Copy OK

Track 8

Filename C:\Documents and Settings\user\My Documents\EAC Rips\04- - Jukebox Gems\Disc 1\08-Kathy_Young_&_the_Innocents-A_Thousand_Stars.wav

Pre-gap length 0:00:02.24

Peak level 100.0 %
Track quality 100.0 %
Test CRC 16EBF179
Copy CRC 16EBF179
Accurately ripped (confidence 2) [5D0F4692]
Copy OK

Track 9

Filename C:\Documents and Settings\user\My Documents\EAC Rips\04- - Jukebox Gems\Disc 1\09-Lesley_Gore-Judy's_Turn_to_Cry.wav

Pre-gap length 0:00:02.76

Peak level 98.5 %
Track quality 100.0 %
Test CRC 61C2DF8D
Copy CRC 61C2DF8D
Accurately ripped (confidence 2) [AF36B11F]
Copy OK

Track 10

Filename C:\Documents and Settings\user\My Documents\EAC Rips\04- - Jukebox Gems\Disc 1\10-Elvis_Presley-Don't_Be_Cruel.wav

Pre-gap length 0:00:02.18

Peak level 90.3 %
Track quality 100.0 %
Test CRC 138FBEC3
Copy CRC 138FBEC3
Accurately ripped (confidence 2) [4F8D1A40]
Copy OK

Track 11

Filename C:\Documents and Settings\user\My Documents\EAC Rips\04- - Jukebox Gems\Disc 1\11-Mickey_&_Sylvia-Love_Is_Strange.wav

Pre-gap length 0:00:02.94

Peak level 100.0 %
Track quality 100.0 %
Test CRC 344003D3
Copy CRC 344003D3
Accurately ripped (confidence 2) [8BC5FC63]
Copy OK

Track 12

Filename C:\Documents and Settings\user\My Documents\EAC Rips\04- - Jukebox Gems\Disc 1\12-Lloyd_Price-Personality.wav

Pre-gap length 0:00:02.48

Peak level 100.0 %
Track quality 100.0 %
Test CRC 0E2104E0
Copy CRC 0E2104E0
Accurately ripped (confidence 2) [E00E5B31]
Copy OK

Track 13

Filename C:\Documents and Settings\user\My Documents\EAC Rips\04- - Jukebox Gems\Disc 1\13-Jay_&_the_Americans-Come_A_Little_Bit_Closer.wav

Pre-gap length 0:00:02.53

Peak level 98.0 %
Track quality 100.0 %
Test CRC 7A06EF58
Copy CRC 7A06EF58
Accurately ripped (confidence 2) [4CB99F00]
Copy OK

Track 14

Filename C:\Documents and Settings\user\My Documents\EAC Rips\04- - Jukebox Gems\Disc 1\14-Ray_Peterson-Tell_Laura_I_Love_Her.wav

Pre-gap length 0:00:02.82

Peak level 75.7 %
Track quality 99.9 %
Test CRC E89B6A7E
Copy CRC E89B6A7E
Accurately ripped (confidence 2) [351A9934]
Copy OK

Track 15

Filename C:\Documents and Settings\user\My Documents\EAC Rips\04- - Jukebox Gems\Disc 1\15-The_Shirelles-Baby,_It's_You.wav

Pre-gap length 0:00:02.30

Peak level 98.2 %
Track quality 100.0 %
Test CRC 4E6BEE10
Copy CRC 4E6BEE10
Accurately ripped (confidence 2) [6E521587]
Copy OK

All tracks accurately ripped

No errors occurred

End of status report

EAC LOG CD8
Exact Audio Copy V0.99 prebeta 3 from 28. July 2007

EAC extraction logfile from 13. February 2008, 12:39

Various Artists / Malt Shop Memories - Jukebox Gems (Disk 2)

Used drive : PHILIPS DVD+-RW SDVD8820 Adapter: 1 ID: 0

Read mode : Secure
Utilize accurate stream : Yes
Defeat audio cache : Yes
Make use of C2 pointers : No

Read offset correction : 6
Overread into Lead-In and Lead-Out : No
Fill up missing offset samples with silence : Yes
Delete leading and trailing silent blocks : No
Null samples used in CRC calculations : Yes
Used interface : Installed external ASPI interface
Gap handling : Appended to previous track

Used output format : User Defined Encoder
Selected bitrate : 192 kBit/s
Quality : High
Add ID3 tag : Yes
Command line compressor : C:\Program Files\Exact Audio Copy\flac.exe
Additional command line options : -8 -A tukey(0.25) -A gauss(0.1875) -b 4096 -V -T "artist=%a" -T "title=%t" -T "album=%g" -T "date=%y" -T "tracknumber=%n" -T "genre=%m" %s --sector-align

TOC of the extracted CD

Track | Start | Length | Start sector | End sector
---------------------------------------------------------
1 | 0:00.00 | 2:11.35 | 0 | 9859
2 | 2:11.35 | 2:19.28 | 9860 | 20312
3 | 4:30.63 | 2:35.57 | 20313 | 31994
4 | 7:06.45 | 2:21.35 | 31995 | 42604
5 | 9:28.05 | 2:13.65 | 42605 | 52644
6 | 11:41.70 | 2:26.18 | 52645 | 63612
7 | 14:08.13 | 2:20.42 | 63613 | 74154
8 | 16:28.55 | 2:23.70 | 74155 | 84949
9 | 18:52.50 | 2:32.40 | 84950 | 96389
10 | 21:25.15 | 2:31.70 | 96390 | 107784
11 | 23:57.10 | 2:22.70 | 107785 | 118504
12 | 26:20.05 | 2:24.45 | 118505 | 129349
13 | 28:44.50 | 2:44.62 | 129350 | 141711
14 | 31:29.37 | 2:27.63 | 141712 | 152799
15 | 33:57.25 | 2:52.11 | 152800 | 165710

Track 1

Filename C:\Documents and Settings\user\My Documents\EAC Rips\04 - Jukebox Gems\Disc 2\01-The_Tymes-So_Much_In_Love.wav

Pre-gap length 0:00:02.00

Peak level 93.2 %
Track quality 100.0 %
Test CRC 1697B155
Copy CRC 1697B155
Accurately ripped (confidence 2) [2D44A6A2]
Copy OK

Track 2

Filename C:\Documents and Settings\user\My Documents\EAC Rips\04 - Jukebox Gems\Disc 2\02-The_Orlons-Don't_Hang_Up.wav

Pre-gap length 0:00:02.68

Peak level 93.3 %
Track quality 100.0 %
Test CRC CB99B4FB
Copy CRC CB99B4FB
Accurately ripped (confidence 2) [74773290]
Copy OK

Track 3

Filename C:\Documents and Settings\user\My Documents\EAC Rips\04 - Jukebox Gems\Disc 2\03-Chubby_Checker-The_Twist.wav

Pre-gap length 0:00:02.13

Peak level 85.0 %
Track quality 100.0 %
Test CRC FF81C430
Copy CRC FF81C430
Accurately ripped (confidence 2) [17F8F396]
Copy OK

Track 4

Filename C:\Documents and Settings\user\My Documents\EAC Rips\04 - Jukebox Gems\Disc 2\04-The_Dovells-Bristol_Stomp.wav

Pre-gap length 0:00:01.96

Peak level 87.1 %
Track quality 99.9 %
Test CRC C67E9089
Copy CRC C67E9089
Accurately ripped (confidence 2) [B8C95BDD]
Copy OK

Track 5

Filename C:\Documents and Settings\user\My Documents\EAC Rips\04 - Jukebox Gems\Disc 2\05-The_Orlons-South_Street.wav

Pre-gap length 0:00:02.41

Peak level 90.1 %
Track quality 100.0 %
Test CRC BFCC87DC
Copy CRC BFCC87DC
Accurately ripped (confidence 2) [E7C411F1]
Copy OK

Track 6

Filename C:\Documents and Settings\user\My Documents\EAC Rips\04 - Jukebox Gems\Disc 2\06-Dee_Dee_Sharp-Ride!.wav

Pre-gap length 0:00:01.62

Peak level 92.6 %
Track quality 100.0 %
Test CRC ECA76B08
Copy CRC ECA76B08
Accurately ripped (confidence 2) [D29060FE]
Copy OK

Track 7

Filename C:\Documents and Settings\user\My Documents\EAC Rips\04 - Jukebox Gems\Disc 2\07-The_Dovells-You_Can't_Sit_Down.wav

Pre-gap length 0:00:01.22

Peak level 95.3 %
Track quality 100.0 %
Test CRC 02929931
Copy CRC 02929931
Accurately ripped (confidence 2) [FAE13191]
Copy OK

Track 8

Filename C:\Documents and Settings\user\My Documents\EAC Rips\04 - Jukebox Gems\Disc 2\08-Chubby_Checker-Limbo_Rock.wav

Pre-gap length 0:00:01.29

Peak level 95.4 %
Track quality 100.0 %
Test CRC 202769EA
Copy CRC 202769EA
Accurately ripped (confidence 2) [881784B0]
Copy OK

Track 9

Filename C:\Documents and Settings\user\My Documents\EAC Rips\04 - Jukebox Gems\Disc 2\09-Dee_Dee_Sharp-Mashed_Potato_Time.wav

Pre-gap length 0:00:01.80

Peak level 91.0 %
Track quality 100.0 %
Test CRC 73F09243
Copy CRC 73F09243
Accurately ripped (confidence 2) [89BBF78B]
Copy OK

Track 10

Filename C:\Documents and Settings\user\My Documents\EAC Rips\04 - Jukebox Gems\Disc 2\10-The_Orlons-The_Wah-Watusi.wav

Pre-gap length 0:00:01.66

Peak level 91.1 %
Track quality 100.0 %
Test CRC 61910DBB
Copy CRC 61910DBB
Accurately ripped (confidence 2) [9FD088B9]
Copy OK

Track 11

Filename C:\Documents and Settings\user\My Documents\EAC Rips\04 - Jukebox Gems\Disc 2\11-Bobby_Rydell-Wild_One.wav

Pre-gap length 0:00:02.26

Peak level 93.0 %
Track quality 100.0 %
Test CRC 2736BD41
Copy CRC 2736BD41
Accurately ripped (confidence 2) [B3EA344A]
Copy OK

Track 12

Filename C:\Documents and Settings\user\My Documents\EAC Rips\04 - Jukebox Gems\Disc 2\12-Charlie_Gracie-Butterlfy.wav

Pre-gap length 0:00:01.70

Peak level 89.1 %
Track quality 100.0 %
Test CRC A83DF54A
Copy CRC A83DF54A
Accurately ripped (confidence 2) [E18FA283]
Copy OK

Track 13

Filename C:\Documents and Settings\user\My Documents\EAC Rips\04 - Jukebox Gems\Disc 2\13-The_Rays-Silhouettes.wav

Pre-gap length 0:00:02.08

Peak level 95.6 %
Track quality 100.0 %
Test CRC D991455D
Copy CRC D991455D
Accurately ripped (confidence 2) [EE35E9A3]
Copy OK

Track 14

Filename C:\Documents and Settings\user\My Documents\EAC Rips\04 - Jukebox Gems\Disc 2\14-Bobby_Rydell-Volare.wav

Pre-gap length 0:00:02.06

Peak level 89.8 %
Track quality 100.0 %
Test CRC 9E77B7A6
Copy CRC 9E77B7A6
Accurately ripped (confidence 2) [ECBC970C]
Copy OK

Track 15

Filename C:\Documents and Settings\user\My Documents\EAC Rips\04 - Jukebox Gems\Disc 2\15-The_Tymes-Wonderful!_Wonderful!.wav

Pre-gap length 0:00:01.66

Peak level 88.9 %
Track quality 100.0 %
Test CRC 8B6F27E9
Copy CRC 8B6F27E9
Accurately ripped (confidence 2) [DCE1306D]
Copy OK

All tracks accurately ripped

No errors occurred

End of status report

EAC LOG CD9
Exact Audio Copy V0.99 prebeta 3 from 28. July 2007

EAC extraction logfile from 13. February 2008, 17:17

Various Artists / Time-Life Street Corner Symphonies (Disc 1)

Used drive : PHILIPS DVD+-RW SDVD8820 Adapter: 1 ID: 0

Read mode : Secure
Utilize accurate stream : Yes
Defeat audio cache : Yes
Make use of C2 pointers : No

Read offset correction : 6
Overread into Lead-In and Lead-Out : No
Fill up missing offset samples with silence : Yes
Delete leading and trailing silent blocks : No
Null samples used in CRC calculations : Yes
Used interface : Installed external ASPI interface
Gap handling : Appended to previous track

Used output format : User Defined Encoder
Selected bitrate : 192 kBit/s
Quality : High
Add ID3 tag : Yes
Command line compressor : C:\Program Files\Exact Audio Copy\flac.exe
Additional command line options : -8 -A tukey(0.25) -A gauss(0.1875) -b 4096 -V -T "artist=%a" -T "title=%t" -T "album=%g" -T "date=%y" -T "tracknumber=%n" -T "genre=%m" %s --sector-align

TOC of the extracted CD

Track | Start | Length | Start sector | End sector
---------------------------------------------------------
1 | 0:00.00 | 2:59.10 | 0 | 13434
2 | 2:59.10 | 2:16.07 | 13435 | 23641
3 | 5:15.17 | 2:54.36 | 23642 | 36727
4 | 8:09.53 | 2:45.36 | 36728 | 49138
5 | 10:55.14 | 2:21.54 | 49139 | 59767
6 | 13:16.68 | 2:20.62 | 59768 | 70329
7 | 15:37.55 | 2:20.54 | 70330 | 80883
8 | 17:58.34 | 2:54.67 | 80884 | 94000
9 | 20:53.26 | 2:27.51 | 94001 | 105076
10 | 23:21.02 | 3:07.63 | 105077 | 119164
11 | 26:28.65 | 2:14.62 | 119165 | 129276
12 | 28:43.52 | 2:16.00 | 129277 | 139476
13 | 30:59.52 | 2:46.48 | 139477 | 151974
14 | 33:46.25 | 4:00.62 | 151975 | 170036
15 | 37:47.12 | 2:28.38 | 170037 | 181174

Track 1

Filename C:\Documents and Settings\user\My Documents\EAC Rips\05 - Street Corner Symphonies\Disc 1\01-The_Drifters-On_Broadway.wav

Pre-gap length 0:00:02.00

Peak level 98.9 %
Track quality 100.0 %
Test CRC 0F0B0FF5
Copy CRC 0F0B0FF5
Accurately ripped (confidence 2) [75163D65]
Copy OK

Track 2

Filename C:\Documents and Settings\user\My Documents\EAC Rips\05 - Street Corner Symphonies\Disc 1\02-The_Marcels-Blue_Moon.wav

Pre-gap length 0:00:02.09

Peak level 100.0 %
Track quality 100.0 %
Test CRC 39F30C1E
Copy CRC 39F30C1E
Accurately ripped (confidence 2) [74C5A7A8]
Copy OK

Track 3

Filename C:\Documents and Settings\user\My Documents\EAC Rips\05 - Street Corner Symphonies\Disc 1\03-The_Crests-16_Candles.wav

Pre-gap length 0:00:02.82

Peak level 100.0 %
Track quality 100.0 %
Test CRC 20A90E97
Copy CRC 20A90E97
Accurately ripped (confidence 2) [9DD9C173]
Copy OK

Track 4

Filename C:\Documents and Settings\user\My Documents\EAC Rips\05 - Street Corner Symphonies\Disc 1\04-The_Duprees-You_Belong_to_Me.wav

Pre-gap length 0:00:03.00

Peak level 94.5 %
Track quality 100.0 %
Test CRC BCE38295
Copy CRC BCE38295
Accurately ripped (confidence 2) [A0D66C4A]
Copy OK

Track 5

Filename C:\Documents and Settings\user\My Documents\EAC Rips\05 - Street Corner Symphonies\Disc 1\05-The_Monotones-Book_of_Love.wav

Pre-gap length 0:00:03.17

Peak level 91.9 %
Track quality 100.0 %
Test CRC EEA3A975
Copy CRC EEA3A975
Accurately ripped (confidence 2) [8C6C9AC1]
Copy OK

Track 6

Filename C:\Documents and Settings\user\My Documents\EAC Rips\05 - Street Corner Symphonies\Disc 1\06-Frankie_Lymon_and_the_Teenagers-Why_Do_Fools_Fall_In_Love.wav

Pre-gap length 0:00:03.42

Peak level 100.0 %
Track quality 100.0 %
Test CRC D7DEF6F3
Copy CRC D7DEF6F3
Accurately ripped (confidence 2) [D30D9764]
Copy OK

Track 7

Filename C:\Documents and Settings\user\My Documents\EAC Rips\05 - Street Corner Symphonies\Disc 1\07-The_Fiestas-So_Fine.wav

Pre-gap length 0:00:03.65

Peak level 95.9 %
Track quality 100.0 %
Test CRC 2288AB71
Copy CRC 2288AB71
Accurately ripped (confidence 2) [452C1D44]
Copy OK

Track 8

Filename C:\Documents and Settings\user\My Documents\EAC Rips\05 - Street Corner Symphonies\Disc 1\08-Shep_and_the_Limettes-Daddy's_Home.wav

Pre-gap length 0:00:01.56

Peak level 99.9 %
Track quality 100.0 %
Test CRC BF620986
Copy CRC BF620986
Accurately ripped (confidence 2) [4AB7BDBC]
Copy OK

Track 9

Filename C:\Documents and Settings\user\My Documents\EAC Rips\05 - Street Corner Symphonies\Disc 1\09-The_Marveltones-I_Do.wav

Pre-gap length 0:00:03.10

Peak level 64.2 %
Track quality 100.0 %
Test CRC F4AB2AD2
Copy CRC F4AB2AD2
Accurately ripped (confidence 2) [56D6B50D]
Copy OK

Track 10

Filename C:\Documents and Settings\user\My Documents\EAC Rips\05 - Street Corner Symphonies\Disc 1\10-The_Sensations-Let_Me_In.wav

Pre-gap length 0:00:03.13

Peak level 100.0 %
Track quality 100.0 %
Test CRC 5FDAE193
Copy CRC 5FDAE193
Accurately ripped (confidence 2) [973380BE]
Copy OK

Track 11

Filename C:\Documents and Settings\user\My Documents\EAC Rips\05 - Street Corner Symphonies\Disc 1\11-The_Capris-There's_A_Moon_Out_Tonight.wav

Pre-gap length 0:00:01.29

Peak level 94.0 %
Track quality 99.9 %
Test CRC 3653069C
Copy CRC 3653069C
Accurately ripped (confidence 2) [CAA33804]
Copy OK

Track 12

Filename C:\Documents and Settings\user\My Documents\EAC Rips\05 - Street Corner Symphonies\Disc 1\12-Don_and_Juan-What's_Your_Name.wav

Pre-gap length 0:00:03.05

Peak level 87.2 %
Track quality 100.0 %
Test CRC 45581439
Copy CRC 45581439
Accurately ripped (confidence 2) [6F19FB47]
Copy OK

Track 13

Filename C:\Documents and Settings\user\My Documents\EAC Rips\05 - Street Corner Symphonies\Disc 1\13-The_Silhouettes-Get_a_Job.wav

Pre-gap length 0:00:03.06

Peak level 100.0 %
Track quality 100.0 %
Test CRC 2C362B86
Copy CRC 2C362B86
Accurately ripped (confidence 2) [A47E7EE4]
Copy OK

Track 14

Filename C:\Documents and Settings\user\My Documents\EAC Rips\05 - Street Corner Symphonies\Disc 1\14-Harvey_and_the_Moonglows-Ten_Commandments_of_Love.wav

Pre-gap length 0:00:02.05

Peak level 99.9 %
Track quality 100.0 %
Test CRC 2A46A45E
Copy CRC 2A46A45E
Accurately ripped (confidence 2) [662D2BDA]
Copy OK

Track 15

Filename C:\Documents and Settings\user\My Documents\EAC Rips\05 - Street Corner Symphonies\Disc 1\15-The_Duprees-Have_You_Heard.wav

Pre-gap length 0:00:03.05

Peak level 86.7 %
Track quality 100.0 %
Test CRC D5849E5F
Copy CRC D5849E5F
Accurately ripped (confidence 2) [BB36C319]
Copy OK

All tracks accurately ripped

No errors occurred

End of status report

EAC LOG CD10
Exact Audio Copy V0.99 prebeta 3 from 28. July 2007

EAC extraction logfile from 13. February 2008, 17:45

Various Artists / Time-Life Street Corner Symphonies (Disc 2)

Used drive : PHILIPS DVD+-RW SDVD8820 Adapter: 1 ID: 0

Read mode : Secure
Utilize accurate stream : Yes
Defeat audio cache : Yes
Make use of C2 pointers : No

Read offset correction : 6
Overread into Lead-In and Lead-Out : No
Fill up missing offset samples with silence : Yes
Delete leading and trailing silent blocks : No
Null samples used in CRC calculations : Yes
Used interface : Installed external ASPI interface
Gap handling : Appended to previous track

Used output format : User Defined Encoder
Selected bitrate : 192 kBit/s
Quality : High
Add ID3 tag : Yes
Command line compressor : C:\Program Files\Exact Audio Copy\flac.exe
Additional command line options : -8 -A tukey(0.25) -A gauss(0.1875) -b 4096 -V -T "artist=%a" -T "title=%t" -T "album=%g" -T "date=%y" -T "tracknumber=%n" -T "genre=%m" %s --sector-align

TOC of the extracted CD

Track | Start | Length | Start sector | End sector
---------------------------------------------------------
1 | 0:00.00 | 2:42.04 | 0 | 12153
2 | 2:42.04 | 2:09.67 | 12154 | 21895
3 | 4:51.71 | 1:59.15 | 21896 | 30835
4 | 6:51.11 | 3:10.18 | 30836 | 45103
5 | 10:01.29 | 2:19.52 | 45104 | 55580
6 | 12:21.06 | 3:04.73 | 55581 | 69453
7 | 15:26.04 | 2:42.48 | 69454 | 81651
8 | 18:08.52 | 2:56.37 | 81652 | 94888
9 | 21:05.14 | 1:37.44 | 94889 | 102207
10 | 22:42.58 | 2:15.10 | 102208 | 112342
11 | 24:57.68 | 2:07.60 | 112343 | 121927
12 | 27:05.53 | 3:06.05 | 121928 | 135882
13 | 30:11.58 | 2:31.64 | 135883 | 147271
14 | 32:43.47 | 2:23.28 | 147272 | 158024
15 | 35:07.00 | 2:40.58 | 158025 | 170082

Track 1

Filename C:\Documents and Settings\user\My Documents\EAC Rips\05 - Street Corner Symphonies\Disc 2\01-The_Del-Vikings-Come_Go_With_Me.wav

Pre-gap length 0:00:02.00

Peak level 100.0 %
Track quality 99.9 %
Test CRC D16F7D56
Copy CRC D16F7D56
Accurately ripped (confidence 2) [D71C3886]
Copy OK

Track 2

Filename C:\Documents and Settings\user\My Documents\EAC Rips\05 - Street Corner Symphonies\Disc 2\02-The_Diamonds-Little_Darlin'.wav

Pre-gap length 0:00:02.16

Peak level 95.7 %
Track quality 100.0 %
Test CRC 69F6C512
Copy CRC 69F6C512
Accurately ripped (confidence 2) [558AE319]
Copy OK

Track 3

Filename C:\Documents and Settings\user\My Documents\EAC Rips\05 - Street Corner Symphonies\Disc 2\03-Randy_&_the_Rainbows-Denise.wav

Pre-gap length 0:00:03.53

Peak level 97.0 %
Track quality 99.9 %
Test CRC 730C722C
Copy CRC 730C722C
Accurately ripped (confidence 2) [4AD86F89]
Copy OK

Track 4

Filename C:\Documents and Settings\user\My Documents\EAC Rips\05 - Street Corner Symphonies\Disc 2\04-The_Moonglows-Sincerely.wav

Pre-gap length 0:00:02.46

Peak level 88.8 %
Track quality 99.9 %
Test CRC A9C99A66
Copy CRC A9C99A66
Accurately ripped (confidence 2) [8AB8D91C]
Copy OK

Track 5

Filename C:\Documents and Settings\user\My Documents\EAC Rips\05 - Street Corner Symphonies\Disc 2\05-Dion_&_the_Belmonts-I_Wonder_Why.wav

Pre-gap length 0:00:02.02

Peak level 96.2 %
Track quality 100.0 %
Test CRC 792E0FF2
Copy CRC 792E0FF2
Accurately ripped (confidence 2) [763BFE5F]
Copy OK

Track 6

Filename C:\Documents and Settings\user\My Documents\EAC Rips\05 - Street Corner Symphonies\Disc 2\06-The_Five_Satins-In_the_Still_of_the_Night.wav

Pre-gap length 0:00:01.88

Peak level 100.0 %
Track quality 99.9 %
Test CRC 8B274F77
Copy CRC 8B274F77
Accurately ripped (confidence 2) [12F8E717]
Copy OK

Track 7

Filename C:\Documents and Settings\user\My Documents\EAC Rips\05 - Street Corner Symphonies\Disc 2\07-The_Elegants-Little_Star.wav

Pre-gap length 0:00:01.73

Peak level 84.1 %
Track quality 100.0 %
Test CRC F1EEF752
Copy CRC F1EEF752
Accurately ripped (confidence 2) [C2ADBEF2]
Copy OK

Track 8

Filename C:\Documents and Settings\user\My Documents\EAC Rips\05 - Street Corner Symphonies\Disc 2\08-The_Penguins-Earth_Angel_(Will_You_Be_Mine).wav

Pre-gap length 0:00:02.93

Peak level 100.0 %
Track quality 100.0 %
Test CRC 575936D4
Copy CRC 575936D4
Accurately ripped (confidence 2) [DA4D9A4F]
Copy OK

Track 9

Filename C:\Documents and Settings\user\My Documents\EAC Rips\05 - Street Corner Symphonies\Disc 2\09-Maurice_Williams_&_the_Zodiacs-Stay.wav

Pre-gap length 0:00:03.00

Peak level 94.4 %
Track quality 100.0 %
Test CRC B16BCFD8
Copy CRC B16BCFD8
Accurately ripped (confidence 2) [936D4DC2]
Copy OK

Track 10

Filename C:\Documents and Settings\user\My Documents\EAC Rips\05 - Street Corner Symphonies\Disc 2\10-The_Danleers-One_Summer_Night.wav

Pre-gap length 0:00:03.30

Peak level 85.0 %
Track quality 99.9 %
Test CRC 7EBE0E2C
Copy CRC 7EBE0E2C
Accurately ripped (confidence 2) [E2A82FB4]
Copy OK

Track 11

Filename C:\Documents and Settings\user\My Documents\EAC Rips\05 - Street Corner Symphonies\Disc 2\11-The_Earls-Remember_Then.wav

Pre-gap length 0:00:03.16

Peak level 89.2 %
Track quality 100.0 %
Test CRC B1D7D8AD
Copy CRC B1D7D8AD
Accurately ripped (confidence 2) [8C62600B]
Copy OK

Track 12

Filename C:\Documents and Settings\user\My Documents\EAC Rips\05 - Street Corner Symphonies\Disc 2\12-Lee_Andrews_&_the_Hearts-Try_the_Impossible.wav

Pre-gap length 0:00:03.04

Peak level 99.9 %
Track quality 100.0 %
Test CRC E3F11A6F
Copy CRC E3F11A6F
Accurately ripped (confidence 2) [6756DADC]
Copy OK

Track 13

Filename C:\Documents and Settings\user\My Documents\EAC Rips\05 - Street Corner Symphonies\Disc 2\13-Impalas_-_Sorry_(I_Ran_All_The_Way_Home)-Impalas_-_Sorry_(I_Ran_All_The_Way_Home).wav

Pre-gap length 0:00:03.50

Peak level 89.7 %
Track quality 100.0 %
Test CRC D0A17800
Copy CRC D0A17800
Accurately ripped (confidence 2) [2280824C]
Copy OK

Track 14

Filename C:\Documents and Settings\user\My Documents\EAC Rips\05 - Street Corner Symphonies\Disc 2\14-The_Sheppards-Island_of_Love.wav

Pre-gap length 0:00:02.01

Peak level 98.7 %
Track quality 100.0 %
Test CRC 630BB1BB
Copy CRC 630BB1BB
Accurately ripped (confidence 2) [C35CFEDF]
Copy OK

Track 15

Filename C:\Documents and Settings\user\My Documents\EAC Rips\05 - Street Corner Symphonies\Disc 2\15-The_Spaniels-Goodnite,_Sweetheart,_Goodnite.wav

Pre-gap length 0:00:03.09

Peak level 97.9 %
Track quality 100.0 %
Test CRC ECF15732
Copy CRC ECF15732
Accurately ripped (confidence 2) [C3916794]
Copy OK

All tracks accurately ripped

No errors occurred

End of status report


Download Various Artists - Time Life - Malt Shop Memories [10CD Box Set] (2007):




Thanks to the original Publicist "ostapnick"

If you'll find that my links are dead please let me know through the Private Messages.

Please DO NOT MIRROR
ADVERTISING » High Speed Download « ADVERTISING




Posted By: jimripall Date: 18 Sep 2021 11:16:28
great share thanks a lot ...
Posted By: tbmusic Date: 18 Sep 2021 12:14:37
that's very nice
thanks
Recent searches: