Loading...
Done
Home > Music > +Pop
Posted By : jhoer10 | Date : 18 Oct 2021 10:47:09 | Comments : 0 |

Ronan Keating - Winter Songs (2009)
EAC Rip | FLAC (tracks)+Cue+Log | 44 min 32 sec | Scans | 292.3 MB
Genre: Pop, Christmas | Label: 101 DISTRIBUTION | Year Of Release: November 19, 2021

2009 holiday release from the leader of Boyzone. Following the success of Ronan Keating's international #1 album Songs For My Mother released earlier this year, Ronan has recorded another special set of songs entitled Winter Songs. Teaming up again with Songs For My Mother producer Steve Lipson, Ronan has pulled together a set of 11 songs that evoke special memories of winter and Christmas for him. Winter Songs is a mix of traditional and modern festive classics, including tracks from artists such as Simon & Garfunkel, Joni Mitchell and Grammy Award winning Sugarland. Along with these, Ronan has also included the poignant Christmas Hymn `Silent Night' and the beautiful `Have Yourself a Merry Little Christmas'. The album also includes two brand new Ronan songs: `Its Only Christmas' and `Scars'. Polydor.


Tracklist
---------
01. Winter Song
02. Stay
03. Scars
04. Homeward Bound
05. River
06. It's Only Christmas
07. Little Drummer Boy
08. Ring Them Bells
09. Caledonia
10. Silent Night
11. Have Yourself A Merry Little Christmas
12. I Won't Last A Day Without You

Log
Exact Audio Copy V0.99 prebeta 4 from 23. January 2008

EAC extraction logfile from 14. December 2009, 22:50

Ronan Keating / Winter Songs

Used drive : PIONEER DVD-RW DVR-216D Adapter: 1 ID: 1

Read mode : Secure
Utilize accurate stream : Yes
Defeat audio cache : Yes
Make use of C2 pointers : No

Read offset correction : 96
Overread into Lead-In and Lead-Out : No
Fill up missing offset samples with silence : Yes
Delete leading and trailing silent blocks : No
Null samples used in CRC calculations : Yes
Used interface : Native Win32 interface for Win NT & 2000
Gap handling : Appended to previous track

Used output format : User Defined Encoder
Selected bitrate : 128 kBit/s
Quality : High
Add ID3 tag : No
Command line compressor : C:\Program Files (x86)\Exact Audio Copy\Flac\flac.exe
Additional command line options : -V -8 -T "artist=%a" -T "title=%t" -T "album=%g" -T "date=%y" -T "tracknumber=%n" -T "genre=%m" %s


TOC of the extracted CD

Track | Start | Length | Start sector | End sector
---------------------------------------------------------
1 | 0:01.00 | 4:18.46 | 75 | 19470
2 | 4:19.46 | 4:36.57 | 19471 | 40227
3 | 8:56.28 | 3:59.23 | 40228 | 58175
4 | 12:55.51 | 3:14.18 | 58176 | 72743
5 | 16:09.69 | 4:04.71 | 72744 | 91114
6 | 20:14.65 | 3:24.57 | 91115 | 106471
7 | 23:39.47 | 3:13.33 | 106472 | 120979
8 | 26:53.05 | 3:27.42 | 120980 | 136546
9 | 30:20.47 | 4:02.57 | 136547 | 154753
10 | 34:23.29 | 3:15.00 | 154754 | 169378
11 | 37:38.29 | 2:55.52 | 169379 | 182555
12 | 40:34.06 | 3:57.66 | 182556 | 200396


Track 1

Filename E:\EAC Rips\Ronan Keating - Winter Songs - 2009\01 - Ronan Keating - Winter Song.wav

Pre-gap length 0:00:03.00

Peak level 98.8 %
Track quality 100.0 %
Test CRC 6F70ED62
Copy CRC 6F70ED62
Track not present in AccurateRip database
Copy OK

Track 2

Filename E:\EAC Rips\Ronan Keating - Winter Songs - 2009\02 - Ronan Keating - Stay.wav

Peak level 99.4 %
Track quality 100.0 %
Test CRC 0E0382C2
Copy CRC 0E0382C2
Track not present in AccurateRip database
Copy OK

Track 3

Filename E:\EAC Rips\Ronan Keating - Winter Songs - 2009\03 - Ronan Keating - Scars.wav

Peak level 98.8 %
Track quality 100.0 %
Test CRC F5C17330
Copy CRC F5C17330
Track not present in AccurateRip database
Copy OK

Track 4

Filename E:\EAC Rips\Ronan Keating - Winter Songs - 2009\04 - Ronan Keating - Homeward Bound.wav

Peak level 98.8 %
Track quality 99.9 %
Test CRC 3A9AE6AA
Copy CRC 3A9AE6AA
Track not present in AccurateRip database
Copy OK

Track 5

Filename E:\EAC Rips\Ronan Keating - Winter Songs - 2009\05 - Ronan Keating - River.wav

Peak level 99.5 %
Track quality 100.0 %
Test CRC E791E592
Copy CRC E791E592
Track not present in AccurateRip database
Copy OK

Track 6

Filename E:\EAC Rips\Ronan Keating - Winter Songs - 2009\06 - Ronan Keating - It's Only Christmas.wav

Pre-gap length 0:00:00.13

Peak level 99.6 %
Track quality 100.0 %
Test CRC 63D85A0B
Copy CRC 63D85A0B
Track not present in AccurateRip database
Copy OK

Track 7

Filename E:\EAC Rips\Ronan Keating - Winter Songs - 2009\07 - Ronan Keating - Little Drummer Boy.wav

Pre-gap length 0:00:00.61

Peak level 98.8 %
Track quality 100.0 %
Test CRC 14AEC460
Copy CRC 14AEC460
Track not present in AccurateRip database
Copy OK

Track 8

Filename E:\EAC Rips\Ronan Keating - Winter Songs - 2009\08 - Ronan Keating - Ring Them Bells.wav

Peak level 98.8 %
Track quality 99.9 %
Test CRC 02DA172C
Copy CRC 02DA172C
Track not present in AccurateRip database
Copy OK

Track 9

Filename E:\EAC Rips\Ronan Keating - Winter Songs - 2009\09 - Ronan Keating - Caledonia.wav

Pre-gap length 0:00:00.44

Peak level 98.8 %
Track quality 99.9 %
Test CRC F4468A7A
Copy CRC F4468A7A
Track not present in AccurateRip database
Copy OK

Track 10

Filename E:\EAC Rips\Ronan Keating - Winter Songs - 2009\10 - Ronan Keating - Silent Night.wav

Peak level 98.8 %
Track quality 100.0 %
Test CRC 7EC3F62B
Copy CRC 7EC3F62B
Track not present in AccurateRip database
Copy OK

Track 11

Filename E:\EAC Rips\Ronan Keating - Winter Songs - 2009\11 - Ronan Keating - Have Yourself A Merry Little Christmas.wav

Peak level 98.8 %
Track quality 100.0 %
Test CRC 64CFEDA9
Copy CRC 64CFEDA9
Track not present in AccurateRip database
Copy OK

Track 12

Filename E:\EAC Rips\Ronan Keating - Winter Songs - 2009\12 - Ronan Keating - I Won't Last A Day Without You.wav

Pre-gap length 0:00:03.77

Peak level 100.0 %
Track quality 100.0 %
Test CRC D31D9C03
Copy CRC D31D9C03
Track not present in AccurateRip database
Copy OK


None of the tracks are present in the AccurateRip database

No errors occurred

End of status report



ADVERTISING » High Speed Download « ADVERTISING




No comments for the news
Recent searches: