Loading...
Done
Home > Music > +Pop
Pet Shop Boys - Pandemonium: Live at the O2 Arena (2010) [FLAC+DVD]
Posted By : SCR09 | Date : 26 Feb 2022 09:30:09 | Comments : 1

Pet Shop Boys - Pandemonium: Live at the O2 Arena (2010) [FLAC]
Europop, Synth-pop | FLAC (Tracks+Cue+Log) | 577 Mb
Label: Parlophone Released: Feb. 15, 2010

Captured on their sold out worldwide Pandemonium tour--this two disc CD and DVD release sees the Pet Shop Boys at the height of their powers.

Featuring songs from 2009's critically acclaimed Yes album plus all their greatest hits including "West End Girls", "Being Boring" and "Heart"--Pandemonium is the definitive live Pet Shop Boys experience; shot in HD and mixed by Stuart Price.

The DVD also features three music videos and two exclusive live encore tracks performed at the O2--including a cover of "My Girl" by Madness. Last but by no means least is the spectacular BRITs performance from 2009 when the Pet Shop Boys were honoured with the prestigious Outstanding Contribution to Music award. This performance features both Lady Gaga and Brandon Flowers from The Killers.

Also included is a brand new audio commentary from Neil and Chris together with the show's creative director Es Devlin.


Pandemonium CD Track List:

01 More Than A Dream/Heart 4:23
02 Did You See Me Coming? 3:41
03 Pandemonium/Can You Forgive Her? 4:05
04 Love Etc. 3:14
05 Go West 3:55
06 Two Divided By Zero 3:46
07 Why Don't We Live Together? 4:17
08 New York City Boy 2:51
09 Always On My Mind 3:43
10 Closer To Heaven/Left To My Own Devices 5:40
11 Do I Have To? 3:14
12 King's Cross 4:11
13 Suburbia 5:12
14 Se A Vida É/Discoteca/Domino Dancing/Viva La Vida 6:00
15 It's A Sin 5:04
16 Being Boring 5:17
17 West End Girls 5:15

EAC LOG
Exact Audio Copy V0.99 prebeta 4 from 23. January 2008

EAC extraction logfile from 25. February 2010, 10:21

Pet Shop Boys / Pandemonium

Used drive : HL-DT-STDVDRAM GSA-4163B Adapter: 0 ID: 2

Read mode : Secure
Utilize accurate stream : Yes
Defeat audio cache : Yes
Make use of C2 pointers : No

Read offset correction : 667
Overread into Lead-In and Lead-Out : No
Fill up missing offset samples with silence : Yes
Delete leading and trailing silent blocks : No
Null samples used in CRC calculations : Yes
Used interface : Native Win32 interface for Win NT & 2000
Gap handling : Appended to previous track

Used output format : User Defined Encoder
Selected bitrate : 128 kBit/s
Quality : High
Add ID3 tag : No
Command line compressor : C:\Program Files\Exact Audio Copy\Flac\flac.exe
Additional command line options : -V -8 -T "artist=%a" -T "title=%t" -T "album=%g" -T "date=%y" -T "tracknumber=%n" -T "genre=%m" %s


TOC of the extracted CD

Track | Start | Length | Start sector | End sector
---------------------------------------------------------
1 | 0:01.00 | 4:22.40 | 75 | 19764
2 | 4:23.40 | 3:40.74 | 19765 | 36338
3 | 8:04.39 | 4:04.61 | 36339 | 54699
4 | 12:09.25 | 3:14.25 | 54700 | 69274
5 | 15:23.50 | 3:54.50 | 69275 | 86874
6 | 19:18.25 | 3:45.48 | 86875 | 103797
7 | 23:03.73 | 4:17.19 | 103798 | 123091
8 | 27:21.17 | 2:51.08 | 123092 | 135924
9 | 30:12.25 | 3:43.17 | 135925 | 152666
10 | 33:55.42 | 5:40.18 | 152667 | 178184
11 | 39:35.60 | 3:13.40 | 178185 | 192699
12 | 42:49.25 | 4:11.02 | 192700 | 211526
13 | 47:00.27 | 5:12.27 | 211527 | 234953
14 | 52:12.54 | 5:59.61 | 234954 | 261939
15 | 58:12.40 | 5:03.67 | 261940 | 284731
16 | 63:16.32 | 5:17.01 | 284732 | 308507
17 | 68:33.33 | 5:14.55 | 308508 | 332112


Track 1

Filename C:\Pet Shop Boys\Pandemonium\01 - More Than A Dream , Heart.wav

Pre-gap length 0:00:03.00

Peak level 100.0 %
Track quality 100.0 %
Test CRC 18C25DF0
Copy CRC 18C25DF0
Track not present in AccurateRip database
Copy OK

Track 2

Filename C:\Pet Shop Boys\Pandemonium\02 - Did You See Me Coming.wav

Peak level 100.0 %
Track quality 100.0 %
Test CRC 1C53BECD
Copy CRC 1C53BECD
Track not present in AccurateRip database
Copy OK

Track 3

Filename C:\Pet Shop Boys\Pandemonium\03 - Pandemonium , Can You Forgive Her .wav

Peak level 100.0 %
Track quality 100.0 %
Test CRC 9A0CEA46
Copy CRC 9A0CEA46
Track not present in AccurateRip database
Copy OK

Track 4

Filename C:\Pet Shop Boys\Pandemonium\04 - Love etc..wav

Peak level 100.0 %
Track quality 100.0 %
Test CRC 723EF18E
Copy CRC 723EF18E
Track not present in AccurateRip database
Copy OK

Track 5

Filename C:\Pet Shop Boys\Pandemonium\05 - Go West.wav

Peak level 100.0 %
Track quality 100.0 %
Test CRC BE85871D
Copy CRC BE85871D
Track not present in AccurateRip database
Copy OK

Track 6

Filename C:\Pet Shop Boys\Pandemonium\06 - Two Divided By Zero.wav

Peak level 100.0 %
Track quality 100.0 %
Test CRC 5204FA0B
Copy CRC 5204FA0B
Track not present in AccurateRip database
Copy OK

Track 7

Filename C:\Pet Shop Boys\Pandemonium\07 - Why Don't We Live Together .wav

Peak level 100.0 %
Track quality 100.0 %
Test CRC 10B8B31A
Copy CRC 10B8B31A
Track not present in AccurateRip database
Copy OK

Track 8

Filename C:\Pet Shop Boys\Pandemonium\08 - New York City Boy.wav

Peak level 100.0 %
Track quality 100.0 %
Test CRC E2CD9EA2
Copy CRC E2CD9EA2
Track not present in AccurateRip database
Copy OK

Track 9

Filename C:\Pet Shop Boys\Pandemonium\09 - Alway On My Mind.wav

Peak level 100.0 %
Track quality 100.0 %
Test CRC 549CF1CD
Copy CRC 549CF1CD
Track not present in AccurateRip database
Copy OK

Track 10

Filename C:\Pet Shop Boys\Pandemonium\10 - Closer To Heaven , Left To My Own Devices.wav

Peak level 100.0 %
Track quality 100.0 %
Test CRC F512E987
Copy CRC F512E987
Track not present in AccurateRip database
Copy OK

Track 11

Filename C:\Pet Shop Boys\Pandemonium\11 - Do I Have To .wav

Peak level 100.0 %
Track quality 100.0 %
Test CRC 015DE7ED
Copy CRC 015DE7ED
Track not present in AccurateRip database
Copy OK

Track 12

Filename C:\Pet Shop Boys\Pandemonium\12 - King's Cross.wav

Peak level 100.0 %
Track quality 99.9 %
Test CRC 80717A3A
Copy CRC 80717A3A
Track not present in AccurateRip database
Copy OK

Track 13

Filename C:\Pet Shop Boys\Pandemonium\13 - Suburbia.wav

Peak level 100.0 %
Track quality 100.0 %
Test CRC 0A1DA159
Copy CRC 0A1DA159
Track not present in AccurateRip database
Copy OK

Track 14

Filename C:\Pet Shop Boys\Pandemonium\14 - Se A Vida É , Discoteca , Domino Dancing , Viva La Vida.wav

Peak level 100.0 %
Track quality 100.0 %
Test CRC 42464583
Copy CRC 42464583
Track not present in AccurateRip database
Copy OK

Track 15

Filename C:\Pet Shop Boys\Pandemonium\15 - It's A Sin.wav

Peak level 100.0 %
Track quality 100.0 %
Test CRC A159B5DE
Copy CRC A159B5DE
Track not present in AccurateRip database
Copy OK

Track 16

Filename C:\Pet Shop Boys\Pandemonium\16 - Being Boring.wav

Peak level 100.0 %
Track quality 100.0 %
Test CRC AB184184
Copy CRC AB184184
Track not present in AccurateRip database
Copy OK

Track 17

Filename C:\Pet Shop Boys\Pandemonium\17 - West End Girls.wav

Peak level 100.0 %
Track quality 100.0 %
Test CRC B56F6226
Copy CRC B56F6226
Track not present in AccurateRip database
Copy OK


None of the tracks are present in the AccurateRip database

No errors occurred

End of status report



http://rapidshare.com/files/355755429/PSB-Pand3monium.FL.SCR.TBMC.part1.rar
http://rapidshare.com/files/355766212/PSB-Pand3monium.FL.SCR.TBMC.part2.rar
http://rapidshare.com/files/355773304/PSB-Pand3monium.FL.SCR.TBMC.part3.rar
http://rapidshare.com/files/355784555/PSB-Pand3monium.FL.SCR.TBMC.part4.rar
http://rapidshare.com/files/355791375/PSB-Pand3monium.FL.SCR.TBMC.part5.rar
http://rapidshare.com/files/355801553/PSB-Pand3monium.FL.SCR.TBMC.part6.rar






Pet Shop Boys - Pandemonium: Live at the O2 Arena (2010) [DVD]
Europop, Synth-pop | DVDRip (Avi) | 16:9 | 1:37 + extras | 1,18 GB
Label: Parlophone Released: Feb. 15, 2010





Pandemonium DVD Track List:

01 More Than A Dream/Heart
02 Did You See Me Coming?
03 Pandemonium/Can You Forgive Her?
04 Love Etc.
05 Building A Wall
06 Go West
07 Two Divided By Zero
08 Why Don't We Live Together?
09 New York City Boy
10 Always On My Mind
11 Closer To Heaven/Left To My Own Devices
12 Do I Have To?
13 King's Cross
14 The Way It Used To Be
15 Jealousy
16 Suburbia
17 What Have I Done To Deserve This?
18 All Over The World
19 Se A Vida É/Discoteca/Domino Dancing/Viva La Vida
20 It's A Sin
21 Being Boring
22 West End Girls
DVD Extras
23 My Girl (Live At The O2)
24 It Doesn't Often Snow At Christmas (Live At The O2)
25 Love Etc. (Music Video)
26 Did You See Me Coming? (Music Video)
27 All Over The World (Music Video)
28 2009 BRIT Awards Performance
Vocals — Brandon Flowers , Lady Gaga
29 Audio Commentary By Pet Shop Boys And Es Devlin


http://rapidshare.com/files/355652252/PSB-Pand3monium.Cncrt.SCR.TBMC.part01.rar
http://rapidshare.com/files/355652251/PSB-Pand3monium.Cncrt.SCR.TBMC.part02.rar
http://rapidshare.com/files/355669177/PSB-Pand3monium.Cncrt.SCR.TBMC.part03.rar
http://rapidshare.com/files/355669207/PSB-Pand3monium.Cncrt.SCR.TBMC.part04.rar
http://rapidshare.com/files/355683748/PSB-Pand3monium.Cncrt.SCR.TBMC.part05.rar
http://rapidshare.com/files/355683774/PSB-Pand3monium.Cncrt.SCR.TBMC.part06.rar
http://rapidshare.com/files/355698962/PSB-Pand3monium.Cncrt.SCR.TBMC.part07.rar
http://rapidshare.com/files/355699033/PSB-Pand3monium.Cncrt.SCR.TBMC.part08.rar
http://rapidshare.com/files/355717766/PSB-Pand3monium.Cncrt.SCR.TBMC.part09.rar
http://rapidshare.com/files/355717807/PSB-Pand3monium.Cncrt.SCR.TBMC.part10.rar
http://rapidshare.com/files/355737636/PSB-Pand3monium.Cncrt.SCR.TBMC.part11.rar
http://rapidshare.com/files/355737754/PSB-Pand3monium.Cncrt.SCR.TBMC.part12.rar
http://rapidshare.com/files/355755281/PSB-Pand3monium.Cncrt.SCR.TBMC.part13.rar



Please, NO MIRRORS!!!

Visit my blog!


ADVERTISING » Download fast « ADVERTISING
Posted By: peachfuzz Date: 27 Feb 2022 07:32:10
Neil Tennant still sounds good. Thanks for sharing!
Recent searches:
DONATE AVAXHOME:

Donate please!