Loading...
Done
Home > Music > +Other Styles > Oldies
Yves Montand - Luna Park
Posted By : Hkus | Date : 27 Feb 2022 16:23:44 | Comments : 3
Yves Montand - Luna Park

Yves Montand - Luna Park (2008)
1 CD | EAC Rip | APE, image+.cue | 300 Mb
Front Cover | Chanson | French Pop | Vocal Pop | Mbop Direct - Sound & Vision


Tracklist:
1. Quand Un Soldat S'en Va - T-Em Guerre
2. La Butte Rouge
3. Les Feuilles Mortes
4. A Paris
5. Luna Park
6. Clementine
7. Mathilda (Waltzing Matilda)
8. C'est Si Bon
9. Les Routiers
10. Cornet De Frites
11. Grands Boulevards
12. Amour, Mon Cher Amour
13. Le Dormfeur Du Val
14. Compagnons Des Mauvais Jours
15. Rue Lepic
16. Tournesol
17. Un Gamin De Paris
18. Bal Petit Bal
19. Champion Du Monde
20. Chopin, Clopant
21. Et La Fete Continue
22. Rue Saint-Vincet
23. Je Suis Venu A Pied
24. Jolie Comme Une Rose
25. Les Enfents Qui S'aiment
26. Battling Joe

Montand went on to international recognition as a singer and actor, starring in numerous films. His recognizably crooner songs, especially those about Paris, became instant classics.
He was one of the most famous performers at Bruno Coquatrix' famous Paris Olympia music hall.
In 1951, he married the actress Simone Signoret, and they co-starred in several films throughout their careers. The marriage was, by all accounts, fairly harmonious, lasting until her death in 1985, although Montand had a number of well-publicised affairs, notably with Marilyn Monroe, with whom he starred in one of her last films, Let's Make Love. During his career, Montand acted in a number of American motion pictures as well as on Broadway. He was nominated for a Cesar Award for "Best Actor" in 1980 for "I comme Icare" and again in 1984 for "Garcon!"
In the French dubbings of Looney Tunes, the character Pepe Le Pew is an Italian skunk named "Pepe le putois". The voice characterization was often based on Montand's performances.
In 1986, after his international box-office draw power had fallen off considerably, the 65-year-old Montand gave one of his most memorable performances, as the scheming uncle in the two-part film: Jean de Florette, co-starring Gerard Depardieu, and Manon des Sources, co-starring Emmanuelle Beart. The film was a worldwide critical hit and raised Montand's profile in the U.S., where he made an appearance on "Late Night with David Letterman."

EAC LOG
Exact Audio Copy V0.99 prebeta 5 from 4. May 2009
EAC extraction logfile from 10. September 2009, 19:13
Yves Montand / Luna Park
Used drive : ASUS DRW-2014L1T Adapter: 0 ID: 1
Read mode : Secure
Utilize accurate stream : Yes
Defeat audio cache : Yes
Make use of C2 pointers : No
Read offset correction : 6
Overread into Lead-In and Lead-Out : No
Fill up missing offset samples with silence : Yes
Delete leading and trailing silent blocks : No
Null samples used in CRC calculations : Yes
Used interface : Native Win32 interface for Win NT & 2000
Used output format : Internal WAV Routines
Sample format : 44.100 Hz; 16 Bit; Stereo
TOC of the extracted CD
Track | Start | Length | Start sector | End sector
---------------------------------------------------------
1 | 0:00.00 | 1:55.49 | 0 | 8673
2 | 1:55.49 | 3:45.64 | 8674 | 25612
3 | 5:41.38 | 3:19.23 | 25613 | 40560
4 | 9:00.61 | 3:13.45 | 40561 | 55080
5 | 12:14.31 | 1:58.74 | 55081 | 64004
6 | 14:13.30 | 3:23.31 | 64005 | 79260
7 | 17:36.61 | 3:14.39 | 79261 | 93849
8 | 20:51.25 | 2:40.12 | 93850 | 105861
9 | 23:31.37 | 3:03.03 | 105862 | 119589
10 | 26:34.40 | 3:19.18 | 119590 | 134532
11 | 29:53.58 | 2:36.54 | 134533 | 146286
12 | 32:30.37 | 3:07.29 | 146287 | 160340
13 | 35:37.66 | 3:03.67 | 160341 | 174132
14 | 38:41.58 | 2:56.12 | 174133 | 187344
15 | 41:37.70 | 2:44.30 | 187345 | 199674
16 | 44:22.25 | 2:24.16 | 199675 | 210490
17 | 46:46.41 | 2:33.38 | 210491 | 222003
18 | 49:20.04 | 2:20.11 | 222004 | 232514
19 | 51:40.15 | 2:18.08 | 232515 | 242872
20 | 53:58.23 | 3:27.22 | 242873 | 258419
21 | 57:25.45 | 2:43.11 | 258420 | 270655
22 | 60:08.56 | 3:23.61 | 270656 | 285941
23 | 63:32.42 | 3:02.06 | 285942 | 299597
24 | 66:34.48 | 3:10.07 | 299598 | 313854
25 | 69:44.55 | 3:07.74 | 313855 | 327953
26 | 72:52.54 | 2:51.71 | 327954 | 340849
Range status and errors
Selected range
Filename D:\MUSIC\Ives Montand _ Luna Park\Yves Montand - Luna Park.wav
Peak level 94.4 %
Range quality 100.0 %
Copy CRC C9E56106
Copy OK
No errors occurred
End of status report






ADVERTISING » Download fast « ADVERTISING
Posted By: arikomuzungu Date: 27 Feb 2022 17:32:57
Wow ! Un chanteur français (et non des moindres) en lossless sur Avaxhome ! ça mérite d'être salué ! et ça mérite de chaleureux remerciements !
Posted By: frav10 Date: 27 Feb 2022 18:27:48
Thank's from israel.
Posted By: frav10 Date: 28 Feb 2022 11:15:36
Hi - I tried 2 downloads.in both I got 45 minutes of music.and this ain't full cd.please check it - Thank's.
Recent searches:
DONATE AVAXHOME:

Donate please!