Loading...
Done
Home > Music > Soundtrack (OST)
León: The Professional (Soundtrack) (1994)
Posted By : juanchito | Date : 10 Feb 2022 18:11:54 | Comments : 1

León: The Professional (Soundtrack) (1994)
Soundtrack | EAC Rip, log | AUDIOCHECKER log | FLAC, separate files, no cue + mp3 VBR 192 - 320 Kbps + AAC in MPEG-4 container (M4A) 401 Kbps | 311, or 100, or 178 MB


Eric Serra is a composer born in France in 1959, best known for the film scores written for film director Luc Besson.
The son of French songwriter Claude Serra, Eric was brought up in a musical background and learned the guitar in his youth. By the age of 15 he was playing rock and jazz and graduated to playing for artists such as Yousou n'Dour and Mory Kanté.


Track listing
01. Noon (04:00)
02. Cute Name (03:25)
03. Ballad For Mathilda (02:14)
04. What's Happening Out There? (03:03)
05. A Bird In New York (01:19)
06. She Is Dead (01:32)
07. Fatman (05:11)
08. Leon The Cleaner (01:48)
09. Can I Have A Word With You? (01:12)
10. The Game Is Over (01:35)
11. Feel The Breath (03:20)
12. Room 4602 (01:17)
13. Very Special Delivery (02:44)
14. When Leon Does His Best (02:09)
15. Back On The Crime Scene (02:34)
16. Birds Of Storm (01:36)
17. Tony The IBM (01:56)
18. How Do You Know It's Love? (01:29)
19. The Fight (Part 1: The SWAT Squad) (02:33)
20. The Fight (Part 2: Bring Me Everyone) (04:30)
21. The Fight (Part 3: The Big Weapon) (03:04)
22. The Fight (Part 4: One Is Alive) (03:10)
23. Two Ways Out (03:08)
24. Hey Little Angel (04:48)

EAC log
EAC extraction logfile from 1. June 2006, 17:25 for CD
Eric Serra / Leon

Used drive : PLEXTOR DVDR PX-712A Adapter: 0 ID: 2
Read mode : Secure with NO C2, accurate stream, disable cache
Read offset correction : 30
Overread into Lead-In and Lead-Out : No

Used output format : C:\FLAC\bin\flac.exe (User Defined Encoder)
128 kBit/s
Additional command line options : -5 -V -T "ARTIST=%a" -T "TITLE=%t" -T "ALBUM=%g" -T "DATE=%y" -T "TRACKNUMBER=%n" -T "GENRE=%m" -T "COMMENT=EAC Flac 1.1.2 -5" %s

Other options :
Fill up missing offset samples with silence : Yes
Delete leading and trailing silent blocks : No
Native Win32 interface for Win NT & 2000


Track 1
Filename C:\Eric Serra - Leon\01 - Noon.wav

Pre-gap length 0:00:02.32

Peak level 91.2 %
Track quality 100.0 %
Test CRC 363E192A
Copy CRC 363E192A
Copy OK

Track 2
Filename C:\Eric Serra - Leon\02 - Cute Name.wav

Pre-gap length 0:00:01.53

Peak level 69.0 %
Track quality 99.9 %
Test CRC E5A62E03
Copy CRC E5A62E03
Copy OK

Track 3
Filename C:\Eric Serra - Leon\03 - Ballad For Mathilda.wav

Pre-gap length 0:00:02.09

Peak level 53.7 %
Track quality 100.0 %
Test CRC 3D47AD19
Copy CRC 3D47AD19
Copy OK

Track 4
Filename C:\Eric Serra - Leon\04 - What's Happening Out There .wav

Peak level 85.8 %
Track quality 100.0 %
Test CRC C46C61C3
Copy CRC C46C61C3
Copy OK

Track 5
Filename C:\Eric Serra - Leon\05 - A Bird In New York.wav

Pre-gap length 0:00:00.57

Peak level 86.6 %
Track quality 100.0 %
Test CRC B317CD61
Copy CRC B317CD61
Copy OK

Track 6
Filename C:\Eric Serra - Leon\06 - She is Dead.wav

Pre-gap length 0:00:01.60

Peak level 71.7 %
Track quality 100.0 %
Test CRC 8BB05D7A
Copy CRC 8BB05D7A
Copy OK

Track 7
Filename C:\Eric Serra - Leon\07 - Fatman.wav

Pre-gap length 0:00:00.03

Peak level 88.7 %
Track quality 100.0 %
Test CRC 895F644D
Copy CRC 895F644D
Copy OK

Track 8
Filename C:\Eric Serra - Leon\08 - Leon The Cleaner.wav

Pre-gap length 0:00:02.42

Peak level 78.2 %
Track quality 100.0 %
Test CRC FD1CAAF9
Copy CRC FD1CAAF9
Copy OK

Track 9
Filename C:\Eric Serra - Leon\09 - Can I Have A Word With You .wav

Pre-gap length 0:00:00.12

Peak level 76.6 %
Track quality 99.8 %
Test CRC 3C35C9FC
Copy CRC 3C35C9FC
Copy OK

Track 10
Filename C:\Eric Serra - Leon\10 - The Game Is Over.wav

Pre-gap length 0:00:00.38

Peak level 73.5 %
Track quality 100.0 %
Test CRC 1D6381B5
Copy CRC 1D6381B5
Copy OK

Track 11
Filename C:\Eric Serra - Leon\11 - Feel The Breath.wav

Pre-gap length 0:00:01.08

Peak level 86.0 %
Track quality 99.9 %
Test CRC EFE15F85
Copy CRC EFE15F85
Copy OK

Track 12
Filename C:\Eric Serra - Leon\12 - Room 4602.wav

Pre-gap length 0:00:00.72

Peak level 82.0 %
Track quality 99.8 %
Test CRC EB538675
Copy CRC EB538675
Copy OK

Track 13
Filename C:\Eric Serra - Leon\13 - Very Special Delivery.wav

Pre-gap length 0:00:00.44

Peak level 69.3 %
Track quality 100.0 %
Test CRC 90A16109
Copy CRC 90A16109
Copy OK

Track 14
Filename C:\Eric Serra - Leon\14 - When Leon Does His Best.wav

Peak level 99.3 %
Track quality 99.9 %
Test CRC 6BBC6C8A
Copy CRC 6BBC6C8A
Copy OK

Track 15
Filename C:\Eric Serra - Leon\15 - Back On The Crime Scene.wav

Pre-gap length 0:00:00.46

Peak level 70.1 %
Track quality 100.0 %
Test CRC 560A751E
Copy CRC 560A751E
Copy OK

Track 16
Filename C:\Eric Serra - Leon\16 - Birds Of Storm.wav

Pre-gap length 0:00:00.01

Peak level 70.8 %
Track quality 100.0 %
Test CRC 13292608
Copy CRC 13292608
Copy OK

Track 17
Filename C:\Eric Serra - Leon\17 - Tony The IBM.wav

Peak level 92.5 %
Track quality 100.0 %
Test CRC 93DA63F7
Copy CRC 93DA63F7
Copy OK

Track 18
Filename C:\Eric Serra - Leon\18 - How Do You Know It's Love .wav

Peak level 27.8 %
Track quality 100.0 %
Test CRC 9A6DF317
Copy CRC 9A6DF317
Copy OK

Track 19
Filename C:\Eric Serra - Leon\19 - The Fight (part 1- The Swat Squad).wav

Peak level 96.4 %
Track quality 100.0 %
Test CRC 29C69931
Copy CRC 29C69931
Copy OK

Track 20
Filename C:\Eric Serra - Leon\20 - The Fight (part 2- Bring Me Everyone).wav

Peak level 96.8 %
Track quality 100.0 %
Test CRC DDC25F63
Copy CRC DDC25F63
Copy OK

Track 21
Filename C:\Eric Serra - Leon\21 - The Fight (part 3- The Big Weapon).wav

Pre-gap length 0:00:00.01

Peak level 99.3 %
Track quality 100.0 %
Test CRC 8643EA66
Copy CRC 8643EA66
Copy OK

Track 22
Filename C:\Eric Serra - Leon\22 - The Fight (part 4- One Is Alive).wav

Peak level 76.5 %
Track quality 100.0 %
Test CRC 657AD19F
Copy CRC 657AD19F
Copy OK

Track 23
Filename C:\Eric Serra - Leon\23 - Two Ways Out.wav

Pre-gap length 0:00:02.10

Peak level 67.5 %
Track quality 100.0 %
Test CRC C6D7C69A
Copy CRC C6D7C69A
Copy OK

Track 24
Filename C:\Eric Serra - Leon\24 - Hey Little Angel.wav

Pre-gap length 0:00:01.37

Peak level 99.3 %
Track quality 100.0 %
Test CRC 42B7B058
Copy CRC 42B7B058
Copy OK

No errors occured


End of status report



Audiochecker log
AUDIOCHECKER v1.2 - by Dester - [email protected]
~~~~~~~~~~~~~~~~~

01 -===- c:\Users\adrian\Downloads\Leon OST [FLAC][Eric Serra - 1994]\01 - Noon.flac
Extracted successfully
Conclusion: This track looks like CDDA with probability 100%

02 -===- c:\Users\adrian\Downloads\Leon OST [FLAC][Eric Serra - 1994]\02 - Cute Name.flac
Extracted successfully
Conclusion: This track looks like CDDA with probability 100%

03 -===- c:\Users\adrian\Downloads\Leon OST [FLAC][Eric Serra - 1994]\03 - Ballad For Mathilda.flac
Extracted successfully
Conclusion: This track looks like CDDA with probability 100%

04 -===- c:\Users\adrian\Downloads\Leon OST [FLAC][Eric Serra - 1994]\04 - What's Happening Out There .flac
Extracted successfully
Conclusion: This track looks like CDDA with probability 100%

05 -===- c:\Users\adrian\Downloads\Leon OST [FLAC][Eric Serra - 1994]\05 - A Bird In New York.flac
Extracted successfully
Conclusion: This track looks like CDDA with probability 100%

06 -===- c:\Users\adrian\Downloads\Leon OST [FLAC][Eric Serra - 1994]\06 - She is Dead.flac
Extracted successfully
Conclusion: This track looks like CDDA with probability 100%

07 -===- c:\Users\adrian\Downloads\Leon OST [FLAC][Eric Serra - 1994]\07 - Fatman.flac
Extracted successfully
Conclusion: This track looks like CDDA with probability 100%

08 -===- c:\Users\adrian\Downloads\Leon OST [FLAC][Eric Serra - 1994]\08 - Leon The Cleaner.flac
Extracted successfully
Conclusion: This track looks like CDDA with probability 100%

09 -===- c:\Users\adrian\Downloads\Leon OST [FLAC][Eric Serra - 1994]\09 - Can I Have A Word With You .flac
Extracted successfully
Conclusion: This track looks like CDDA with probability 100%

10 -===- c:\Users\adrian\Downloads\Leon OST [FLAC][Eric Serra - 1994]\10 - The Game Is Over.flac
Extracted successfully
Conclusion: This track looks like CDDA with probability 100%

11 -===- c:\Users\adrian\Downloads\Leon OST [FLAC][Eric Serra - 1994]\11 - Feel The Breath.flac
Extracted successfully
Conclusion: This track looks like CDDA with probability 100%

12 -===- c:\Users\adrian\Downloads\Leon OST [FLAC][Eric Serra - 1994]\12 - Room 4602.flac
Extracted successfully
Conclusion: This track looks like CDDA with probability 100%

13 -===- c:\Users\adrian\Downloads\Leon OST [FLAC][Eric Serra - 1994]\13 - Very Special Delivery.flac
Extracted successfully
Conclusion: This track looks like CDDA with probability 99%

14 -===- c:\Users\adrian\Downloads\Leon OST [FLAC][Eric Serra - 1994]\14 - When Leon Does His Best.flac
Extracted successfully
Conclusion: This track looks like CDDA with probability 100%

15 -===- c:\Users\adrian\Downloads\Leon OST [FLAC][Eric Serra - 1994]\15 - Back On The Crime Scene.flac
Extracted successfully
Conclusion: This track looks like CDDA with probability 100%

16 -===- c:\Users\adrian\Downloads\Leon OST [FLAC][Eric Serra - 1994]\16 - Birds Of Storm.flac
Extracted successfully
Conclusion: This track looks like CDDA with probability 100%

17 -===- c:\Users\adrian\Downloads\Leon OST [FLAC][Eric Serra - 1994]\17 - Tony The IBM.flac
Extracted successfully
Conclusion: This track looks like CDDA with probability 100%

18 -===- c:\Users\adrian\Downloads\Leon OST [FLAC][Eric Serra - 1994]\18 - How Do You Know It's Love .flac
Extracted successfully
Conclusion: This track looks like CDDA with probability 100%

19 -===- c:\Users\adrian\Downloads\Leon OST [FLAC][Eric Serra - 1994]\19 - The Fight (part 1- The Swat Squad).flac
Extracted successfully
Conclusion: This track looks like CDDA with probability 100%

20 -===- c:\Users\adrian\Downloads\Leon OST [FLAC][Eric Serra - 1994]\20 - The Fight (part 2- Bring Me Everyone).flac
Extracted successfully
Conclusion: This track looks like CDDA with probability 100%

21 -===- c:\Users\adrian\Downloads\Leon OST [FLAC][Eric Serra - 1994]\21 - The Fight (part 3- The Big Weapon).flac
Extracted successfully
Conclusion: This track looks like CDDA with probability 100%

22 -===- c:\Users\adrian\Downloads\Leon OST [FLAC][Eric Serra - 1994]\22 - The Fight (part 4- One Is Alive).flac
Extracted successfully
Conclusion: This track looks like CDDA with probability 100%

23 -===- c:\Users\adrian\Downloads\Leon OST [FLAC][Eric Serra - 1994]\23 - Two Ways Out.flac
Extracted successfully
Conclusion: This track looks like CDDA with probability 100%

24 -===- c:\Users\adrian\Downloads\Leon OST [FLAC][Eric Serra - 1994]\24 - Hey Little Angel.flac
Extracted successfully
Conclusion: This track looks like CDDA with probability 100%



links:

FLAC:
http://hotfile.com/dl/27882779/4ad545b/Leon.part1.rar.html
http://hotfile.com/dl/27886885/2e685c9/Leon.part2.rar.html

Mirror:
http://rapidshare.com/files/348259646/Leon.part1.rar
http://rapidshare.com/files/348308871/Leon.part2.rar


MP3
http://hotfile.com/dl/27906430/5289dde/leon-mp.rar.html

Mirror:
http://rapidshare.com/files/348377964/leon-mp.rar


AAC (m4a)
http://hotfile.com/dl/27900080/06d062d/leon-m4.rar.html

Mirror:
http://rapidshare.com/files/348338537/leon-m4.rar


pass: juanchito


My Blog
ADVERTISING » Download fast

Download torrent
« ADVERTISING
Posted By: moocan Date: 11 Feb 2022 10:59:24
great great share
thank you very much
Recent searches:
DONATE AVAXHOME:

Donate please!