Loading...
Done
Home > Music
Nina Hagen Band - Unbehagen (1979) {Columbia}
Posted By : ruskaval | Date : 02 Jan 2022 11:34:49 | Comments : 1

Nina Hagen Band - Unbehagen (1979) {Columbia}
EAC rip (secure mode) | FLAC+CUE+LOG -> 257 Mb | MP3 @320 -> 86 Mb
Full Artwork @ 300 dpi (png) -> 18 Mb
© 1991 Sony Music / Columbia | COL 468027 2
Rock / Post Punk / Alternative / Indie



This is one great album by the German rock diva, perhaps her best. It is more accessible than the debut, offers greater variety and some truly gripping songs. African Reggae is a powerful tour de force and by the way, a dancefloor classic, Wir Leben Immer Noch (Lene Lovich's Lucky Number) is a perfect pop song, and Wenn ich ein Junge war with its somewhat risque lyrics just about bursts with exuberance. Fall In Love mit Mir is another catchy number, but every track has its own charm. The great melodies and intelligent lyrics with enthusiastic playing by her band ensure the classic status of this album. In my opinion, this is her Opus Magnum. It demonstrates what can be achieved by integrating reggae rhythms into a rock format, while the rock songs remain top of the league. Her vocal gymnastics are less in evident than on the debut album, but her voice is still brilliantly utilised. An excellent, timeless classic!

tracklist:
1. African Reggae
2. Alptraum
3. Wir Leben Immer… Noch (Lucky Number)
4. Wenn Ich Ein Jungle War (Live Version)
5. Herrmann Hiess Er
6. Auf'm Rummel
7. Wau Wau
8. Fall In Love Mit Mir
9. No Way (Instrumental)


EAC log
Exact Audio Copy V0.99 prebeta 5 from 4. May 2009

EAC extraction logfile from 29. December 2009, 16:17

Nina Hagen Band / Unbehagen

Used drive : TSSTcorpCD/DVDW TS-H552L Adapter: 3 ID: 0

Read mode : Secure
Utilize accurate stream : Yes
Defeat audio cache : Yes
Make use of C2 pointers : No

Read offset correction : 6
Overread into Lead-In and Lead-Out : No
Fill up missing offset samples with silence : Yes
Delete leading and trailing silent blocks : No
Null samples used in CRC calculations : Yes
Used interface : Native Win32 interface for Win NT & 2000
Gap handling : Appended to previous track

Used output format : User Defined Encoder
Selected bitrate : 1024 kBit/s
Quality : High
Add ID3 tag : No
Command line compressor : C:\Program Files\FLAC\flac.exe
Additional command line options : -6 -V -T "ARTIST=%a" -T "TITLE=%t" -T "ALBUM=%g" -T "DATE=%y" -T "TRACKNUMBER=%n" -T "GENRE=%m" -T "COMMENT=EAC FLAC -6" %s


TOC of the extracted CD

Track | Start | Length | Start sector | End sector
---------------------------------------------------------
1 | 0:00.00 | 6:19.12 | 0 | 28436
2 | 6:19.12 | 6:12.70 | 28437 | 56406
3 | 12:32.07 | 4:57.13 | 56407 | 78694
4 | 17:29.20 | 2:17.67 | 78695 | 89036
5 | 19:47.12 | 6:36.15 | 89037 | 118751
6 | 26:23.27 | 4:34.55 | 118752 | 139356
7 | 30:58.07 | 2:09.40 | 139357 | 149071
8 | 33:07.47 | 3:47.05 | 149072 | 166101
9 | 36:54.52 | 1:05.30 | 166102 | 171006


Track 1

Filename C:\Nina Hagen Band - Unbehagen (1979) {Columbia}\01 - African Reggae.wav

Pre-gap length 0:00:02.00

Peak level 82.7 %
Track quality 100.0 %
Test CRC 6C15001F
Copy CRC 6C15001F
Accurately ripped (confidence 11) [E1A57857]
Copy OK

Track 2

Filename C:\Nina Hagen Band - Unbehagen (1979) {Columbia}\02 - Alptraum.wav

Pre-gap length 0:00:01.32

Peak level 97.9 %
Track quality 100.0 %
Test CRC 4004E757
Copy CRC 4004E757
Accurately ripped (confidence 11) [52634BF7]
Copy OK

Track 3

Filename C:\Nina Hagen Band - Unbehagen (1979) {Columbia}\03 - Wir Leben Immer... Noch (Lucky Number).wav

Pre-gap length 0:00:02.47

Peak level 88.3 %
Track quality 99.9 %
Test CRC F287A19D
Copy CRC F287A19D
Accurately ripped (confidence 11) [9CD97258]
Copy OK

Track 4

Filename C:\Nina Hagen Band - Unbehagen (1979) {Columbia}\04 - Wenn Ich Ein Junge War (Live-Version).wav

Pre-gap length 0:00:02.33

Peak level 86.4 %
Track quality 100.0 %
Test CRC 2DF8964E
Copy CRC 2DF8964E
Accurately ripped (confidence 11) [5F70DD61]
Copy OK

Track 5

Filename C:\Nina Hagen Band - Unbehagen (1979) {Columbia}\05 - Herrmann Hiess Er.wav

Pre-gap length 0:00:02.57

Peak level 97.9 %
Track quality 100.0 %
Test CRC 91BC3ABD
Copy CRC 91BC3ABD
Accurately ripped (confidence 11) [5DEE7737]
Copy OK

Track 6

Filename C:\Nina Hagen Band - Unbehagen (1979) {Columbia}\06 - Auf'm Rummel.wav

Peak level 96.1 %
Track quality 100.0 %
Test CRC C51D7901
Copy CRC C51D7901
Accurately ripped (confidence 11) [D4F76227]
Copy OK

Track 7

Filename C:\Nina Hagen Band - Unbehagen (1979) {Columbia}\07 - Wau Wau.wav

Pre-gap length 0:00:01.32

Peak level 92.4 %
Track quality 100.0 %
Test CRC C99826E5
Copy CRC C99826E5
Accurately ripped (confidence 10) [1A6A91C9]
Copy OK

Track 8

Filename C:\Nina Hagen Band - Unbehagen (1979) {Columbia}\08 - Fall In Love Mit Mir.wav

Pre-gap length 0:00:01.37

Peak level 90.8 %
Track quality 100.0 %
Test CRC E5A0B9B5
Copy CRC E5A0B9B5
Accurately ripped (confidence 11) [F289C024]
Copy OK

Track 9

Filename C:\Nina Hagen Band - Unbehagen (1979) {Columbia}\09 - No Way (Instrumental).wav

Peak level 93.3 %
Track quality 99.8 %
Test CRC 47750896
Copy CRC 47750896
Accurately ripped (confidence 11) [D958A56C]
Copy OK


All tracks accurately ripped

No errors occurred

End of status report

Please don't post the links and passes in your comments...

Linkz
ADVERTISING » Download fast « ADVERTISING
Posted By: doctor.watson Date: 02 Jan 2022 15:12:19
Thanks for spoiling us Nina Hagen fans!
Only her debut album is missing.
Hope you have that also, ruskaval!
DONATE AVAXHOME:

Donate please!