Loading...
Done
Home > Music
Murray McLauchlan - Best Of: Songs From The Street (2007)
Posted By : Xmaster | Date : 02 Mar 2022 17:53:19 | Comments : 0

Murray McLauchlan - Best Of: Songs From The Street (2007)
2CD | FLAC-IMAGE+CUE +LOG +COVER | October 16, 2021 | 1.01 Gb
Genre: Folk, Country, Rock | Label: True North Canada


From amazon.com
2 CD Anthology featuring 36 songs from one of Canada s finest songwriters and storytellers. An Order of Canada recipient for his contribution of music excellence, Murray McLauchlan is truly a strong part of Canada s rich music history. Over 140 minutes of Murray\'s best material including all his hits, two previously unreleased tracks, a brand new song and a track penned by the late great Warren Zevon (Carmelita). The mastering was done by Peter Moore (Bruce Cockburn/Cowboy Junkies) all from the original analogue master tapes.

From
Biography


Tracklist:

1Cd:
01. Honkey Red
02. Child's Song
03. Sixteen Lanes of Highway
04. Old Man's Song
05. Carmelita
06. Farmer's Song
07. You Need A New Lover Now
08. Golden Trumpet
09. Revelations
10. Down By The Henry Moore
11. Shoeshine Workin' Song
12. Maybe Tonight
13. Do You Dream of Being Somebody
14. Sweeping the Spotlight Away
15. Cross Country
16. So Far From You
17. Harder To Get Along

2 Cd:
01. On the Boulevard
02. Train Song
03. As Lonely As You
04. Hard Rock Town
05. Whispering Rain
06. Little Dreamer
07. Playin' Your Emotions
08. Try Walkin' Away
09. Into A Mystery
10. Don't Put Your Faith In Men
11. If The Wind Could Blow My Troubles Away
12. Never Did Like That Train
13. Red River Flood
14. Out Past the Timberline
15. Love With A Capital L
16. Swinging On A Star
17. Burned Out CAr
18. No Change In Me
19. Path of the Moon

EAC LOG CD1
Exact Audio Copy V0.99 prebeta 4 from 23. January 2008

EAC extraction logfile from 24. June 2009, 9:45

Murray McLauchlan / Songs from the Street (Disc 1)

Used drive : PIONEER DVD-RW DVR-109 Adapter: 0 ID: 0

Read mode : Secure
Utilize accurate stream : Yes
Defeat audio cache : Yes
Make use of C2 pointers : No

Read offset correction : 48
Overread into Lead-In and Lead-Out : No
Fill up missing offset samples with silence : Yes
Delete leading and trailing silent blocks : No
Null samples used in CRC calculations : Yes
Used interface : Native Win32 interface for Win NT & 2000
Gap handling : Appended to previous track

Used output format : User Defined Encoder
Selected bitrate : 1024 kBit/s
Quality : High
Add ID3 tag : No
Command line compressor : C:\Program Files\FLAC\flac.exe
Additional command line options : -V -8 -T "artist=%a" -T "title=%t" -T "album=%g" -T "date=%y" -T "tracknumber=%n" -T "genre=%m" %s

TOC of the extracted CD

Track | Start | Length | Start sector | End sector
---------------------------------------------------------
1 | 0:00.00 | 3:58.10 | 0 | 17859
2 | 3:58.10 | 6:22.62 | 17860 | 46571
3 | 10:20.72 | 5:29.12 | 46572 | 71258
4 | 15:50.09 | 3:30.16 | 71259 | 87024
5 | 19:20.25 | 4:10.24 | 87025 | 105798
6 | 23:30.49 | 3:00.40 | 105799 | 119338
7 | 26:31.14 | 3:45.63 | 119339 | 136276
8 | 30:17.02 | 4:44.46 | 136277 | 157622
9 | 35:01.48 | 4:50.37 | 157623 | 179409
10 | 39:52.10 | 4:37.71 | 179410 | 200255
11 | 44:30.06 | 5:22.12 | 200256 | 224417
12 | 49:52.18 | 4:03.55 | 224418 | 242697
13 | 53:55.73 | 3:37.45 | 242698 | 259017
14 | 57:33.43 | 4:48.43 | 259018 | 280660
15 | 62:22.11 | 3:51.08 | 280661 | 297993
16 | 66:13.19 | 3:55.05 | 297994 | 315623
17 | 70:08.24 | 5:14.21 | 315624 | 339194

Track 1

Filename F:\Torrent\FLAC\Murray McLauchlan\Songs from the Street (Disc 1)\01 - Honkey Red.wav

Pre-gap length 0:00:02.00

Peak level 98.9 %
Track quality 100.0 %
Test CRC DBE3A4AA
Copy CRC DBE3A4AA
Copy OK

Track 2

Filename F:\Torrent\FLAC\Murray McLauchlan\Songs from the Street (Disc 1)\02 - Child's Song.wav

Pre-gap length 0:00:01.37

Peak level 98.9 %
Track quality 100.0 %
Test CRC 305B2411
Copy CRC 305B2411
Copy OK

Track 3

Filename F:\Torrent\FLAC\Murray McLauchlan\Songs from the Street (Disc 1)\03 - Sixteen Lanes of Highway.wav

Pre-gap length 0:00:01.89

Peak level 100.0 %
Track quality 100.0 %
Test CRC EC8FF060
Copy CRC EC8FF060
Copy OK

Track 4

Filename F:\Torrent\FLAC\Murray McLauchlan\Songs from the Street (Disc 1)\04 - Old Man's Song.wav

Pre-gap length 0:00:02.68

Peak level 98.9 %
Track quality 100.0 %
Test CRC 9A87D888
Copy CRC 9A87D888
Copy OK

Track 5

Filename F:\Torrent\FLAC\Murray McLauchlan\Songs from the Street (Disc 1)\05 - Carmelita.wav

Pre-gap length 0:00:01.92

Peak level 98.9 %
Track quality 100.0 %
Test CRC 924240CA
Copy CRC 924240CA
Copy OK

Track 6

Filename F:\Torrent\FLAC\Murray McLauchlan\Songs from the Street (Disc 1)\06 - Farmer's Song.wav

Pre-gap length 0:00:01.90

Peak level 98.9 %
Track quality 100.0 %
Test CRC 02FC3E31
Copy CRC 02FC3E31
Copy OK

Track 7

Filename F:\Torrent\FLAC\Murray McLauchlan\Songs from the Street (Disc 1)\07 - You Need A New Lover Now.wav

Pre-gap length 0:00:00.97

Peak level 98.9 %
Track quality 100.0 %
Test CRC A98BB13C
Copy CRC A98BB13C
Copy OK

Track 8

Filename F:\Torrent\FLAC\Murray McLauchlan\Songs from the Street (Disc 1)\08 - Golden Trumpet.wav

Pre-gap length 0:00:01.16

Peak level 98.9 %
Track quality 100.0 %
Test CRC C5F3D168
Copy CRC C5F3D168
Copy OK

Track 9

Filename F:\Torrent\FLAC\Murray McLauchlan\Songs from the Street (Disc 1)\09 - Revelations.wav

Pre-gap length 0:00:01.42

Peak level 98.9 %
Track quality 100.0 %
Test CRC 4C04D53D
Copy CRC 4C04D53D
Copy OK

Track 10

Filename F:\Torrent\FLAC\Murray McLauchlan\Songs from the Street (Disc 1)\10 - Down By The Henry Moore.wav

Pre-gap length 0:00:00.88

Peak level 98.9 %
Track quality 99.9 %
Test CRC 77CF61A7
Copy CRC 77CF61A7
Copy OK

Track 11

Filename F:\Torrent\FLAC\Murray McLauchlan\Songs from the Street (Disc 1)\11 - Shoeshine Workin' Song.wav

Pre-gap length 0:00:03.09

Peak level 98.9 %
Track quality 100.0 %
Test CRC 21768203
Copy CRC 21768203
Copy OK

Track 12

Filename F:\Torrent\FLAC\Murray McLauchlan\Songs from the Street (Disc 1)\12 - Maybe Tonight.wav

Pre-gap length 0:00:01.88

Peak level 98.9 %
Track quality 99.9 %
Test CRC 1BAFD081
Copy CRC 1BAFD081
Copy OK

Track 13

Filename F:\Torrent\FLAC\Murray McLauchlan\Songs from the Street (Disc 1)\13 - Do You Dream of Being Somebody.wav

Pre-gap length 0:00:02.66

Peak level 98.9 %
Track quality 100.0 %
Test CRC 9D77DFAA
Copy CRC 9D77DFAA
Copy OK

Track 14

Filename F:\Torrent\FLAC\Murray McLauchlan\Songs from the Street (Disc 1)\14 - Sweeping the Spotlight Away.wav

Pre-gap length 0:00:01.90

Peak level 98.9 %
Track quality 99.9 %
Test CRC 306FB7C1
Copy CRC 306FB7C1
Copy OK

Track 15

Filename F:\Torrent\FLAC\Murray McLauchlan\Songs from the Street (Disc 1)\15 - Cross Country.wav

Pre-gap length 0:00:02.78

Peak level 98.9 %
Track quality 99.9 %
Test CRC 9D186F9F
Copy CRC 9D186F9F
Copy OK

Track 16

Filename F:\Torrent\FLAC\Murray McLauchlan\Songs from the Street (Disc 1)\16 - So Far From You.wav

Pre-gap length 0:00:01.72

Peak level 98.9 %
Track quality 100.0 %
Test CRC E9A76164
Copy CRC E9A76164
Copy OK

Track 17

Filename F:\Torrent\FLAC\Murray McLauchlan\Songs from the Street (Disc 1)\17 - Harder To Get Along.wav

Pre-gap length 0:00:00.92

Peak level 98.9 %
Track quality 100.0 %
Test CRC 032941CC
Copy CRC 032941CC
Copy OK

No errors occurred

End of status report


EAC LOG CD2
Exact Audio Copy V0.99 prebeta 4 from 23. January 2008

EAC extraction logfile from 24. June 2009, 11:38

Murray McLauchlan / Songs from the Street (Disc 2)

Used drive : PIONEER DVD-RW DVR-109 Adapter: 0 ID: 0

Read mode : Secure
Utilize accurate stream : Yes
Defeat audio cache : Yes
Make use of C2 pointers : No

Read offset correction : 48
Overread into Lead-In and Lead-Out : No
Fill up missing offset samples with silence : Yes
Delete leading and trailing silent blocks : No
Null samples used in CRC calculations : Yes
Used interface : Native Win32 interface for Win NT & 2000
Gap handling : Appended to previous track

Used output format : User Defined Encoder
Selected bitrate : 1024 kBit/s
Quality : High
Add ID3 tag : No
Command line compressor : C:\Program Files\FLAC\flac.exe
Additional command line options : -V -8 -T "artist=%a" -T "title=%t" -T "album=%g" -T "date=%y" -T "tracknumber=%n" -T "genre=%m" %s

TOC of the extracted CD

Track | Start | Length | Start sector | End sector
---------------------------------------------------------
1 | 0:00.00 | 3:55.71 | 0 | 17695
2 | 3:55.71 | 5:41.46 | 17696 | 43316
3 | 9:37.42 | 3:26.10 | 43317 | 58776
4 | 13:03.52 | 4:14.27 | 58777 | 77853
5 | 17:18.04 | 3:43.55 | 77854 | 94633
6 | 21:01.59 | 3:18.19 | 94634 | 109502
7 | 24:20.03 | 3:28.25 | 109503 | 125127
8 | 27:48.28 | 3:55.23 | 125128 | 142775
9 | 31:43.51 | 3:49.39 | 142776 | 159989
10 | 35:33.15 | 2:54.73 | 159990 | 173112
11 | 38:28.13 | 3:02.74 | 173113 | 186836
12 | 41:31.12 | 4:00.11 | 186837 | 204847
13 | 45:31.23 | 3:55.59 | 204848 | 222531
14 | 49:27.07 | 4:29.14 | 222532 | 242720
15 | 53:56.21 | 3:25.08 | 242721 | 258103
16 | 57:21.29 | 3:37.22 | 258104 | 274400
17 | 60:58.51 | 4:19.70 | 274401 | 293895
18 | 65:18.46 | 3:51.62 | 293896 | 311282
19 | 69:10.33 | 3:30.35 | 311283 | 327067

Track 1

Filename F:\Torrent\FLAC\Murray McLauchlan\Songs from the Street (Disc 2)\01 - On the Boulevard.wav

Pre-gap length 0:00:02.00

Peak level 98.9 %
Track quality 100.0 %
Test CRC CBB32386
Copy CRC CBB32386
Copy OK

Track 2

Filename F:\Torrent\FLAC\Murray McLauchlan\Songs from the Street (Disc 2)\02 - Train Song.wav

Pre-gap length 0:00:01.49

Peak level 98.9 %
Track quality 100.0 %
Test CRC 5A60BFC4
Copy CRC 5A60BFC4
Copy OK

Track 3

Filename F:\Torrent\FLAC\Murray McLauchlan\Songs from the Street (Disc 2)\03 - As Lonely As You.wav

Pre-gap length 0:00:01.46

Peak level 98.9 %
Track quality 100.0 %
Test CRC 09327DA8
Copy CRC 09327DA8
Copy OK

Track 4

Filename F:\Torrent\FLAC\Murray McLauchlan\Songs from the Street (Disc 2)\04 - Hard Rock Town.wav

Pre-gap length 0:00:01.14

Peak level 98.9 %
Track quality 99.9 %
Test CRC 45237F35
Copy CRC 45237F35
Copy OK

Track 5

Filename F:\Torrent\FLAC\Murray McLauchlan\Songs from the Street (Disc 2)\05 - Whispering Rain.wav

Pre-gap length 0:00:02.77

Peak level 98.9 %
Track quality 100.0 %
Test CRC B33FF357
Copy CRC B33FF357
Copy OK

Track 6

Filename F:\Torrent\FLAC\Murray McLauchlan\Songs from the Street (Disc 2)\06 - Little Dreamer.wav

Pre-gap length 0:00:01.69

Peak level 98.9 %
Track quality 99.9 %
Test CRC BFCECAC2
Copy CRC BFCECAC2
Copy OK

Track 7

Filename F:\Torrent\FLAC\Murray McLauchlan\Songs from the Street (Disc 2)\07 - Playin' Your Emotions.wav

Pre-gap length 0:00:01.68

Peak level 98.9 %
Track quality 100.0 %
Test CRC D5DEAA0C
Copy CRC D5DEAA0C
Copy OK

Track 8

Filename F:\Torrent\FLAC\Murray McLauchlan\Songs from the Street (Disc 2)\08 - Try Walkin' Away.wav

Pre-gap length 0:00:02.17

Peak level 98.9 %
Track quality 100.0 %
Test CRC 4076FCB1
Copy CRC 4076FCB1
Copy OK

Track 9

Filename F:\Torrent\FLAC\Murray McLauchlan\Songs from the Street (Disc 2)\09 - Into A Mystery.wav

Pre-gap length 0:00:01.84

Peak level 98.9 %
Track quality 100.0 %
Test CRC 3AE6E435
Copy CRC 3AE6E435
Copy OK

Track 10

Filename F:\Torrent\FLAC\Murray McLauchlan\Songs from the Street (Disc 2)\10 - Don't Put Your Faith In Men.wav

Pre-gap length 0:00:02.54

Peak level 98.9 %
Track quality 99.9 %
Test CRC BECC85E1
Copy CRC BECC85E1
Copy OK

Track 11

Filename F:\Torrent\FLAC\Murray McLauchlan\Songs from the Street (Disc 2)\11 - If The Wind Could Blow My Troubles Away.wav

Pre-gap length 0:00:01.84

Peak level 98.9 %
Track quality 100.0 %
Test CRC D41F010E
Copy CRC D41F010E
Copy OK

Track 12

Filename F:\Torrent\FLAC\Murray McLauchlan\Songs from the Street (Disc 2)\12 - Never Did Like That Train.wav

Pre-gap length 0:00:01.96

Peak level 98.9 %
Track quality 100.0 %
Test CRC 8B681DDA
Copy CRC 8B681DDA
Copy OK

Track 13

Filename F:\Torrent\FLAC\Murray McLauchlan\Songs from the Street (Disc 2)\13 - Red River Flood.wav

Pre-gap length 0:00:01.64

Peak level 98.9 %
Track quality 99.9 %
Test CRC 7692B7FA
Copy CRC 7692B7FA
Copy OK

Track 14

Filename F:\Torrent\FLAC\Murray McLauchlan\Songs from the Street (Disc 2)\14 - Out Past the Timberline.wav

Pre-gap length 0:00:01.89

Peak level 98.9 %
Track quality 100.0 %
Test CRC 6A99CC62
Copy CRC 6A99CC62
Copy OK

Track 15

Filename F:\Torrent\FLAC\Murray McLauchlan\Songs from the Street (Disc 2)\15 - Love With A Capital L.wav

Pre-gap length 0:00:01.84

Peak level 98.9 %
Track quality 100.0 %
Test CRC 04DC5F0C
Copy CRC 04DC5F0C
Copy OK

Track 16

Filename F:\Torrent\FLAC\Murray McLauchlan\Songs from the Street (Disc 2)\16 - Swinging On A Star.wav

Pre-gap length 0:00:02.22

Peak level 98.9 %
Track quality 100.0 %
Test CRC 01BF7061
Copy CRC 01BF7061
Copy OK

Track 17

Filename F:\Torrent\FLAC\Murray McLauchlan\Songs from the Street (Disc 2)\17 - Burned Out CAr.wav

Pre-gap length 0:00:00.81

Peak level 98.9 %
Track quality 100.0 %
Test CRC 3511D309
Copy CRC 3511D309
Copy OK

Track 18

Filename F:\Torrent\FLAC\Murray McLauchlan\Songs from the Street (Disc 2)\18 - No Change In Me.wav

Pre-gap length 0:00:01.33

Peak level 98.9 %
Track quality 100.0 %
Test CRC 19BC4CAF
Copy CRC 19BC4CAF
Copy OK

Track 19

Filename F:\Torrent\FLAC\Murray McLauchlan\Songs from the Street (Disc 2)\19 - Path of the Moon.wav

Pre-gap length 0:00:02.06

Peak level 98.9 %
Track quality 100.0 %
Test CRC DD12260E
Copy CRC DD12260E
Copy OK

No errors occurred

End of status report


All thanks for original release going to -WestOst-

ADVERTISING » Download fast « ADVERTISING
No comments for the news
Recent searches:
DONATE AVAXHOME:

Donate please!