Loading...
Done
Home > Music
Miles Davis & Thelonious Monk - Miles & Monk At Newport (1991) {Japanese Edition}
Posted By : ruskaval | Date : 03 Jan 2022 17:38:46 | Comments : 11

Miles Davis & Thelonious Monk - Miles & Monk At Newport (1991) {Japanese Edition}
EAC rip (secure mode) | FLAC+CUE+LOG -> 319 Mb | MP3 @320 -> 116 Mb
Full Artwork @ 300 dpi (jpg) -> 12 Mb
© 1991 Sony Music Japan | SRCS 5698
Jazz / Modal Music / Hard Bop



This CD is masterful. A wonderful opportunity for those who already know Miles and Monk to hear more of the kind of sound you love. Two giants at their best in a live recording. If you are unfamiliar with the music of these two greats, this CD is a fantastic introduction to their sound. One word of caution, however, though this is a great CD recording of Miles and Monk together, it is by no means the last word, or note, on the kind of music the artists are, or were, capable of. This CD only demonstrates a tiny facet of the broad repertoires of Miles and Monk.

tracklist:
01 - Ah-Leu-Cha
02 - Straight, No Chaser
03 - Fran Dance
04 - Two Bass Hit
05 - Nutty
06 - Blue Monk



EAC log
Exact Audio Copy V0.99 prebeta 5 from 4. May 2009

EAC extraction logfile from 29. December 2009, 20:58

Miles Davis & Thelonious Monk / Miles & Monk At Newport

Used drive : TSSTcorpCD/DVDW TS-H552L Adapter: 3 ID: 0

Read mode : Secure
Utilize accurate stream : Yes
Defeat audio cache : Yes
Make use of C2 pointers : No

Read offset correction : 6
Overread into Lead-In and Lead-Out : No
Fill up missing offset samples with silence : Yes
Delete leading and trailing silent blocks : No
Null samples used in CRC calculations : Yes
Used interface : Native Win32 interface for Win NT & 2000
Gap handling : Appended to previous track

Used output format : User Defined Encoder
Selected bitrate : 1024 kBit/s
Quality : High
Add ID3 tag : No
Command line compressor : C:\Program Files\FLAC\flac.exe
Additional command line options : -6 -V -T "ARTIST=%a" -T "TITLE=%t" -T "ALBUM=%g" -T "DATE=%y" -T "TRACKNUMBER=%n" -T "GENRE=%m" -T "COMMENT=EAC FLAC -6" %s


TOC of the extracted CD

Track | Start | Length | Start sector | End sector
---------------------------------------------------------
1 | 0:00.00 | 5:49.07 | 0 | 26181
2 | 5:49.07 | 8:59.43 | 26182 | 66649
3 | 14:48.50 | 7:10.60 | 66650 | 98959
4 | 21:59.35 | 4:27.40 | 98960 | 119024
5 | 26:27.00 | 13:58.25 | 119025 | 181899
6 | 40:25.25 | 11:19.25 | 181900 | 232849


Track 1

Filename C:\Miles Davis & Thelonious Monk - Miles & Monk At Newport (1991) {Japanese Edition}\01 - Ah-Leu-Cha.wav

Pre-gap length 0:00:02.00

Peak level 63.4 %
Track quality 100.0 %
Test CRC 96FC0E75
Copy CRC 96FC0E75
Accurately ripped (confidence 1) [E0015930]
Copy OK

Track 2

Filename C:\Miles Davis & Thelonious Monk - Miles & Monk At Newport (1991) {Japanese Edition}\02 - Straight, No Chaser.wav

Peak level 63.2 %
Track quality 99.9 %
Test CRC CAF93C47
Copy CRC CAF93C47
Accurately ripped (confidence 1) [BB99351D]
Copy OK

Track 3

Filename C:\Miles Davis & Thelonious Monk - Miles & Monk At Newport (1991) {Japanese Edition}\03 - Fran Dance.wav

Peak level 57.1 %
Track quality 100.0 %
Test CRC 1381E034
Copy CRC 1381E034
Accurately ripped (confidence 1) [B18B6163]
Copy OK

Track 4

Filename C:\Miles Davis & Thelonious Monk - Miles & Monk At Newport (1991) {Japanese Edition}\04 - Two Bass Hit.wav

Peak level 63.4 %
Track quality 100.0 %
Test CRC AED41ADF
Copy CRC AED41ADF
Accurately ripped (confidence 1) [A8A949CE]
Copy OK

Track 5

Filename C:\Miles Davis & Thelonious Monk - Miles & Monk At Newport (1991) {Japanese Edition}\05 - Nutty.wav

Pre-gap length 0:00:02.55

Peak level 91.5 %
Track quality 100.0 %
Test CRC 0D4EF621
Copy CRC 0D4EF621
Accurately ripped (confidence 1) [BBF01EFF]
Copy OK

Track 6

Filename C:\Miles Davis & Thelonious Monk - Miles & Monk At Newport (1991) {Japanese Edition}\06 - Blue Monk.wav

Peak level 84.2 %
Track quality 100.0 %
Test CRC F1D24987
Copy CRC F1D24987
Accurately ripped (confidence 1) [EF2E6A4C]
Copy OK


All tracks accurately ripped

No errors occurred

End of status report

Please don't post the links and passes in your comments...

Linkz
ADVERTISING » Download fast « ADVERTISING
Posted By: infimum Date: 03 Jan 2022 18:31:58
Thanks for the rare Miles!
Posted By: mfrwiz Date: 03 Jan 2022 18:54:51
Grabbed.Thanks ruskaval ::))
Posted By: musician3 Date: 03 Jan 2022 20:12:24
Great.....Thank You Very Much
HAPPY NEW YEAR
Posted By: ivory-d Date: 03 Jan 2022 21:40:21
Another wonderful post. Thank you, as always.
Posted By: janwal46 Date: 03 Jan 2022 21:41:55
For me this one is pure nostalgy. I have it on vinyl since it's first release in the mid 60s. Great performances and highly recommended !!!!!
Posted By: LezDawson Date: 03 Jan 2022 22:29:20
Thanks. Sounds cold and bright with too much dynamic compression. I keep yearning for the sound to break out, but it can't because of that damn compression.
I'd like to shoot the idiot who mastered this.
Posted By: libra_winmx Date: 03 Jan 2022 22:59:57
Hi, my friend ruskaval,

The great meeting of two genius of jazz!
Amazing posta, ruskaval.
Gracias,

libra
Posted By: ashrafb Date: 04 Jan 2022 00:59:59
thanx thanx
Posted By: crook3d Date: 04 Jan 2022 02:08:36
Wow, ruskaval. I'm not really a Miles fan(but I am a HUGE Monk fan), but I still gotta check this out. I'm sure this is a great album.

Thank you for sharing!

By the way, you really need to get into the lossless trackers. You will be loved there.
Posted By: pesaulius Date: 04 Jan 2022 04:48:49
THANK YOU VERY MUCH
Posted By: Turun Date: 04 Jan 2022 17:53:02
Thank you very much !!! Great performance !!!
DONATE AVAXHOME:

Donate please!