Loading...
Done
Home > Music > +Metal > Thrash Metal | Speed Metal
Heathen - The Evolution Of Chaos (2010)
Posted By : hyzhak | Date : 05 Mar 2022 13:58:41 | Comments : 0
Heathen - The Evolution Of Chaos (2010)

Heathen - The Evolution Of Chaos (2010)
APE+CUE+LOG ~ 525 MB | MP3 [email protected] Kbps ~ 169 MB | Covers ~ 81 MB
Thrash Metal | USA

One of the most unique bands to rise from the second wave of the Bay Area Thrash explosion, Heathen's style was characterized by high-speed precision riffage and harmony sections coupled with melodic singing. Inspired, by '70s rock acts such as Rainbow, the NWOBHM (New Wave Of British Heavy Metal) and the first wave of Thrash Metal (Metallica and Exodus), Heathen was formed in late 1984 by Russian-born Lee Altus (guitars) and Carl Sacco (drums).
Heathen's new album "The Evolution Of Chaos" is available now in Japan via King Records. The album will be available in Europe on January 26th and in the US on February 16th via Mascot Records.
Heathen takes it back to the old school with The Evolution Of Chaos, but also has a few new tricks up their sleeve. Lee Altus and Kragen Lum use all the weapons in their guitar arsenal, from thick riffs to shredding solos. The songs on the album are long, leaving plenty of room for extended instrumental sections that showcase the band's musicianship.

Tracklisting:
01. Intro - 1:21
02. Dying Season - 5:41
03. Control by Chaos - 7:09
04. No Stone Unturned - 11:10
05. Arrows of Agony - 6:40
06. Fade Away - 5:45
07. A Hero's Welcome - 6:52
08. Undone - 6:42
09. Bloodkult - 4:31
10. Red Tears of Disgrace - 5:52
11. Silent Nothingness - 6:51

Line-up:
David White - vocals
Lee Altus - guitars
Kragen Lum - guitars
Jon Torres - bass
Darren Minter - drums

Genre: Thrash Metal
Country: USA
Sample: http://www.myspace.com/heathenmetal
Wikipedia: http://en.wikipedia.org/wiki/Heathen_(band)
Length: 01:08:34
Codec: Monkey's Audio

EAC LOG
Exact Audio Copy V0.99 prebeta 4 from 23. January 2008

EAC extraction logfile from 11. February 2010, 18:24

Heathen / The Evolution Of Chaos

Used drive : ATAPI DVD A DH20A4P Adapter: 3 ID: 0

Read mode : Secure
Utilize accurate stream : Yes
Defeat audio cache : Yes
Make use of C2 pointers : No

Read offset correction : 6
Overread into Lead-In and Lead-Out : No
Fill up missing offset samples with silence : Yes
Delete leading and trailing silent blocks : No
Null samples used in CRC calculations : Yes
Used interface : Installed external ASPI interface

Used output format : Monkey's Audio Lossless Encoder
Selected bitrate : High Lossless Compression
Quality : High
Add ID3 tag : Yes
Command line compressor : C:\Program Files\Monkey's Audio\MAC.exe


TOC of the extracted CD

Track | Start | Length | Start sector | End sector
---------------------------------------------------------
1 | 0:00.00 | 1:21.13 | 0 | 6087
2 | 1:21.13 | 5:40.63 | 6088 | 31650
3 | 7:02.01 | 7:09.14 | 31651 | 63839
4 | 14:11.15 | 11:10.30 | 63840 | 114119
5 | 25:21.45 | 6:40.14 | 114120 | 144133
6 | 32:01.59 | 5:44.64 | 144134 | 169997
7 | 37:46.48 | 6:51.71 | 169998 | 200893
8 | 44:38.44 | 6:42.07 | 200894 | 231050
9 | 51:20.51 | 4:30.49 | 231051 | 251349
10 | 55:51.25 | 5:51.66 | 251350 | 277740
11 | 61:43.16 | 6:50.71 | 277741 | 308561


Range status and errors

Selected range

Filename D:\Download\Heathen - The Evolution Of Chaos.wav

Peak level 98.9 %
Range quality 100.0 %
Copy CRC E50A7619
Copy OK

No errors occurred


AccurateRip summary

Track 1 cannot be verified as accurate (confidence 1) [7CCA16F4], AccurateRip returned [2729F2DF]
Track 2 cannot be verified as accurate (confidence 1) [31D34885], AccurateRip returned [5BC678CA]
Track 3 cannot be verified as accurate (confidence 1) [6D9B9942], AccurateRip returned [F946A05F]
Track 4 cannot be verified as accurate (confidence 1) [5F9755EF], AccurateRip returned [7EA5BDF2]
Track 5 cannot be verified as accurate (confidence 1) [A411EC75], AccurateRip returned [FBD812D5]
Track 6 cannot be verified as accurate (confidence 1) [9682DEF4], AccurateRip returned [AA748B5A]
Track 7 cannot be verified as accurate (confidence 1) [8DD9D889], AccurateRip returned [145D8091]
Track 8 cannot be verified as accurate (confidence 1) [0DD85631], AccurateRip returned [617C636D]
Track 9 cannot be verified as accurate (confidence 1) [5C81DACA], AccurateRip returned [F12D9BCD]
Track 10 cannot be verified as accurate (confidence 1) [0BBF15BE], AccurateRip returned [8D35E857]
Track 11 cannot be verified as accurate (confidence 1) [2E195FD1], AccurateRip returned [1DD1CA2E]

No tracks could be verified as accurate
You may have a different pressing from the one(s) in the database

End of status report

Download - Rapidshare.com with 3% recovery:

MP3
http://rapidshare.com/files/359297264/263100305HTEOCLos.part1.rar
http://rapidshare.com/files/359296616/263100305HTEOCLos.part2.rar

Lossless
http://rapidshare.com/files/359292944/263100305HTEOC.part1.rar
http://rapidshare.com/files/359292758/263100305HTEOC.part2.rar
http://rapidshare.com/files/359294240/263100305HTEOC.part3.rar
http://rapidshare.com/files/359294226/263100305HTEOC.part4.rar
http://rapidshare.com/files/359295565/263100305HTEOC.part5.rar
http://rapidshare.com/files/359294561/263100305HTEOC.part6.rar

Covers
http://rapidshare.com/files/359295650/263100305HTEOCCov.rar

Прошу обратить внимание на то, что весь материал, представленный выше, предназначен исключительно для ознакомления! Приобретайте, пожалуйста, легальные диски, которые вне всякого сомнения станут достойным украшением вашей коллекции!
ADVERTISING » Download fast « ADVERTISING
No comments for the news
Recent searches:
DONATE AVAXHOME:

Donate please!