Loading...
Done
Home > Music > +Metal
Krokus - Headhunter (1983)
Posted By : swint68 | Date : 05 Mar 2022 05:59:56 | Comments : 3

Krokus - Headhunter (1983)
APE + CUE | 244Mb | MP3 320 CBR | 89Mb | 37:50
Genre: Heavy Metal / Hard Rock

Самый успешный альбом легендарной швейцарской группы, получивший статус "платинового" в США. Этим альбомом группа заявила о себе всерьёз и надолго.



Headhunter треклист:

1. Headhunter
2. Eat The Rich
3. Screaming In The Nights
4. Ready To Burn
5. Night Wolf
6. Stayed Awake All Night
7. Stand And Be Counted
8. White Din
9. Russian Winter

EAC LOG
Exact Audio Copy V0.99 prebeta 5 from 4. May 2009

Отчёт EAC об извлечении, выполненном 4. марта 2010, 18:47

Krokus / Headhunter

Дисковод: _NEC DVD_RW ND-4550A Adapter: 4 ID: 0

Режим чтения : Достоверность
Использование точного потока : Да
Отключение кэша аудио : Да
Использование указателей C2 : Нет

Коррекция смещения при чтении : 48
Способность читать области Lead-in и Lead-out : Нет
Заполнение пропущенных сэмплов тишиной : Да
Удаление блоков с тишиной в начале и конце : Нет
При вычислениях CRC использовались нулевые сэмплы : Да
Интерфейс : Встроенный Win32-интерфейс для Win NT/2000

Выходной формат : Внутренние WAV-операции
Формат сэмплов : 44.100 Гц; 16 бит; стерео


TOC извлечённого CD

Трек | Старт | Длительность | Начальный сектор | Конечный сектор
---------------------------------------------------------------------
1 | 0:00.00 | 4:32.42 | 0 | 20441
2 | 4:32.42 | 4:16.00 | 20442 | 39641
3 | 8:48.42 | 6:40.33 | 39642 | 69674
4 | 15:29.00 | 3:55.45 | 69675 | 87344
5 | 19:24.45 | 4:10.27 | 87345 | 106121
6 | 23:34.72 | 4:44.10 | 106122 | 127431
7 | 28:19.07 | 4:09.50 | 127432 | 146156
8 | 32:28.57 | 1:48.50 | 146157 | 154306
9 | 34:17.32 | 3:32.43 | 154307 | 170249


Характеристики диапазона извлечения и сообщения об ошибках

Выбранный диапазон

Имя файла C:\Temp\KrSHR830403L\Krokus - Headhunter.wav

Пиковый уровень 97.3 %
Качество диапазона 100.0 %
CRC копии D09ED92E
Копирование... OK

Ошибок не произошло

Конец отчёта


Download / Скачать:

Rapidshare 1
Rapidshare 2
Rapidshare 3

Download / Скачать: MP3/320 Kbps/CBR

Rapidshare
ADVERTISING » Download fast « ADVERTISING
Posted By: swint68 Date: 05 Mar 2022 08:27:32
It's my last aldum Krokus...
Posted By: dsilversurferz Date: 05 Mar 2022 09:48:05
great post. thanx, swint68.
Posted By: penseur Date: 05 Mar 2022 17:53:37
hi,

u wrote: "It's my last album Krokus... "
oh ok

Fat thx for all items posted :-)
Recent searches:
DONATE AVAXHOME:

Donate please!