Loading...
Done
Home > Music > +Metal
Synthphonia Suprema - The Future Ice-Age (2010)
Posted By : swint68 | Date : 04 Mar 2022 10:19:35 | Comments : 0

Synthphonia Suprema - The Future Ice-Age (2010)
APE + CUE | 380Mb | MP3 320 CBR | 121Mb | 50:44
Genre: Symphonic / Power Metal

Для любителей музыки в стиле Heavenly. Оригинальный Power Metal с добавлением электроники.


The Future Ice-Age треклист:

01. Future Hammerblows
02. Dominatron
03. Beyond The Next
04. I, Storm
05. Iced Waterfalls
06. Phoenix Return
07. Electrodoom
08. Future Ice-Age
09. Synthetic Aurora
10. Nos
11. My Enemy=Loser
12. Aurora Symphonica (Bonus)

EAC LOG
Exact Audio Copy V0.99 prebeta 5 from 4. May 2009

Отчёт EAC об извлечении, выполненном 1. марта 2010, 19:49

Synthphonia Suprema / The Future Ice-Age

Дисковод: _NEC DVD_RW ND-4550A Adapter: 4 ID: 0

Режим чтения : Достоверность
Использование точного потока : Да
Отключение кэша аудио : Да
Использование указателей C2 : Нет

Коррекция смещения при чтении : 48
Способность читать области Lead-in и Lead-out : Нет
Заполнение пропущенных сэмплов тишиной : Да
Удаление блоков с тишиной в начале и конце : Нет
При вычислениях CRC использовались нулевые сэмплы : Да
Интерфейс : Встроенный Win32-интерфейс для Win NT/2000

Выходной формат : Внутренние WAV-операции
Формат сэмплов : 44.100 Гц; 16 бит; стерео


TOC извлечённого CD

Трек | Старт | Длительность | Начальный сектор | Конечный сектор
---------------------------------------------------------------------
1 | 0:00.00 | 1:38.15 | 0 | 7364
2 | 1:38.15 | 4:26.11 | 7365 | 27325
3 | 6:04.26 | 0:39.09 | 27326 | 30259
4 | 6:43.35 | 5:09.47 | 30260 | 53481
5 | 11:53.07 | 6:30.20 | 53482 | 82751
6 | 18:23.27 | 5:31.67 | 82752 | 107643
7 | 23:55.19 | 5:20.31 | 107644 | 131674
8 | 29:15.50 | 5:45.28 | 131675 | 157577
9 | 35:01.03 | 3:57.04 | 157578 | 175356
10 | 38:58.07 | 1:39.61 | 175357 | 182842
11 | 40:37.68 | 6:07.14 | 182843 | 210381
12 | 46:45.07 | 3:57.48 | 210382 | 228204


Характеристики диапазона извлечения и сообщения об ошибках

Выбранный диапазон

Имя файла C:\Temp\Synthphonia Suprema - The Future Ice-Age.wav

Пиковый уровень 99.7 %
Качество диапазона 100.0 %
CRC копии BBC81976
Копирование... OK

Ошибок не произошло

Конец отчёта


Download / Скачать:

Rapidshare 1
Rapidshare 2
Rapidshare 3
Rapidshare 4

Turbobit

Download / Скачать: MP3/320 Kbps/CBR

Rapidshare 1
Rapidshare 2
ADVERTISING » Download fast « ADVERTISING
No comments for the news
Recent searches:
DONATE AVAXHOME:

Donate please!