Loading...
Done
Home > Music > +Metal > Power Metal | Sympho Metal
Therion - Vovin [2001 Reissue] (1998)
Posted By : -=Pasha13=- | Date : 25 Oct 2021 05:54:00 | Comments : 1

Therion - Vovin [2001 Reissue] (1998)
EAC Rip | APE(Image)+CUE+LOG | AccripLOG | 59:09 min | Complete Scans (600dpi) | 468 MB
Symphonic metal | Label: Irond (under Nuclear Blast license) | Catalog #: IROND CD 01-10 | RAR 3% Recovery

This is release from Russian label - Irond, it contain one bonustrack - The King (Accept cover).

Vovin (in Enochian fictitious language VOVIN, VOVINA means dragon) is an album released by the symphonic metal band Therion. It is their bestselling album, selling over 125,000 copies.
Wiki

For those of you with more of an ecclectic taste in metal and/or classical music, this is the ultimate in symphonic bliss. For those of us who have seen Therion go from a straight-forward deathmetal band, into an operatic/symphonic wonder, either love what they have done, or despise it. There are people who shudder with each new release, and cry about how great Therion used to be. I can understand where they are coming from, however, I think Therion have become more and more talented with each release. "Vovin" picks up where "Theli" left off with a warm and full operatic masterpiece. Thus, Therion prove once more, than metal can reach new extremes of classical ambiance. The production is superb, and the packaging is nice (somewhat what you should already expect from Nuclear Blast Records). But if you liked "Theli", and appreciate Therion's new sound, then "Vovin" is for you!
Amazon's Customer





Track listing

1. "The Rise of Sodom and Gomorrah" - 6:45
2. "Birth of Venus Illegitima" - 5:13
3. "Wine of Aluqah" - 5:02
4. "Clavicula Nox" - 8:47
5. "The Wild Hunt" - 3:47
6. "Eye of Shiva" - 6:17
7. "Black Sun" - 5:08
8. "Draconian Trilogy: The Opening" - 1:28
9. "Draconian Trilogy: Morning Star" - 3:34
10. "Draconian Trilogy: Black Diamonds" - 2:56
11. "Raven of Dispersion" - 5:57
12. "The King" - 4:08


Line-up
* Christofer Johnsson - lead guitar
* Tommy Eriksson - guitar
* Kimberly Goss - vocals, keyboard
* Wolf Simon - drums
* Jan Kazda - bass guitar, additional arrangements, orchestra and choir conducting


Guest musicians
* Waldemar Sorychta - additional guitars
* Siegfried Bemm - additionals guitars, production, mixing, mastering
* Lorentz Aspen - Hammond organ ("Draconian Trilogy")
* Ralf Scheepers - lead vocals ("The Wild Hunt")
* Martina Hornbacher - solo and duet alto and soprano vocals
* Sarah Jezebel Deva - solo and duet alto and soprano vocals
* Mattias Klinkman - engineering


Choir and solo opera
* Eileen Küpper - soprano
* Angelica Märtz - soprano
* Dorothea Fischer - alto
* Anne Tributh - alto
* Gregor Dippel - tenor
* Max Cilotek - tenor
* Javier Zapater - bass
* Jochen Bauer - bass


Indigo Orchestra
Orchestration was made by Indigo Orchestra:

* Petra Stalz - violin
* Heike Haushalter - violin
* Monika Maltek - viola
* Gesa Hangen - cello
* Alois Kott - double bass, contrabass



EAC LOG
Exact Audio Copy V0.99 prebeta 5 from 4. May 2009

EAC extraction logfile from 3. October 2009, 5:20

Therion / Vovin

Used drive : Optiarc DVD RW AD-7191S Adapter: 4 ID: 0

Read mode : Secure
Utilize accurate stream : Yes
Defeat audio cache : Yes
Make use of C2 pointers : No

Read offset correction : 6
Overread into Lead-In and Lead-Out : No
Fill up missing offset samples with silence : Yes
Delete leading and trailing silent blocks : No
Null samples used in CRC calculations : Yes
Used interface : Native Win32 interface for Win NT & 2000

Used output format : Internal WAV Routines
Sample format : 44.100 Hz; 16 Bit; Stereo


TOC of the extracted CD

Track | Start | Length | Start sector | End sector
---------------------------------------------------------
1 | 0:00.00 | 6:44.37 | 0 | 30336
2 | 6:44.37 | 5:13.37 | 30337 | 53848
3 | 11:57.74 | 5:02.61 | 53849 | 76559
4 | 17:00.60 | 8:47.37 | 76560 | 116121
5 | 25:48.22 | 3:47.17 | 116122 | 133163
6 | 29:35.39 | 6:17.09 | 133164 | 161447
7 | 35:52.48 | 5:08.44 | 161448 | 184591
8 | 41:01.17 | 1:28.40 | 184592 | 191231
9 | 42:29.57 | 3:34.53 | 191232 | 207334
10 | 46:04.35 | 2:56.42 | 207335 | 220576
11 | 49:01.02 | 5:57.29 | 220577 | 247380
12 | 54:58.31 | 4:08.28 | 247381 | 266008


Range status and errors

Selected range

Filename X:\Therion\Therion - Vovin\Therion - Vovin.wav

Peak level 100.0 %
Range quality 99.9 %
Test CRC 78C0F579
Copy CRC 78C0F579
Copy OK

No errors occurred

End of status report

AccurateRip LOG
[Verification date: 03.10.2021 5:25:33]
[Disc ID: 001cd15e-0105e0a2-980dda0c]
Track [ CRC ] Status
01 [eff238db] (00/04) No matches
02 [90f9ade6] (00/04) No matches
03 [d7c25bdb] (00/04) No matches
04 [322a062c] (00/04) No matches
05 [d3cae96b] (00/04) No matches
06 [f5fb4230] (00/04) No matches
07 [c0e7c2ea] (00/04) No matches
08 [5bf7c6ea] (00/04) No matches
09 [b20769dd] (00/04) No matches
10 [0d9df4c4] (00/04) No matches
11 [d126d25a] (00/04) No matches
12 [7241b729] (00/04) No matches
Offsetted by -66:
01 [20c07c8f] (04/04) Accurately ripped as in pressing(s) #1
02 [6fcbe6c4] (04/04) Accurately ripped as in pressing(s) #1
03 [c8b5c2ac] (04/04) Accurately ripped as in pressing(s) #1
04 [65d8e178] (04/04) Accurately ripped as in pressing(s) #1
05 [1bf5bf62] (04/04) Accurately ripped as in pressing(s) #1
06 [687ddfc4] (04/04) Accurately ripped as in pressing(s) #1
07 [5e021a91] (04/04) Accurately ripped as in pressing(s) #1
08 [385c1c09] (04/04) Accurately ripped as in pressing(s) #1
09 [62e5f121] (04/04) Accurately ripped as in pressing(s) #1
10 [e16ab109] (04/04) Accurately ripped as in pressing(s) #1
11 [4cc088d7] (04/04) Accurately ripped as in pressing(s) #1
12 [e0a45d05] (04/04) Accurately ripped as in pressing(s) #1

Track [ CRC32 ] [W/O NULL] [ LOG ]
-- [78C0F579] [22B5666E] CRC32
01 [15D2A85D] [59A655AC]
02 [66C62C74] [0CA78527]
03 [D81B3454] [2D3C128F]
04 [ED5747BA] [1BF70E7E]
05 [6F6F1FB3] [ACAEA89D]
06 [8C82513C] [0A3D617A]
07 [1570F2DA] [447E2E2C]
08 [4204D8D4] [0CF556BB]
09 [D9158C66] [15E335DD]
10 [87731D73] [1961E623]
11 [5B4A6F49] [4CA36DC3]
12 [C82254BC] [800345D2]

P.S.
As you can see the AccurateRip database not ideal because anyone can add info to it, just ignore this wrong offset, there is nothing perfect in this world.


Spectral veiw

(click to enlarge)



Part 1 | Part2 | Part3 | Part4

Password: www.AvaxHome.ru
Posted By: pompel Date: 25 Oct 2021 12:32:42
Thank you! I'll check them out!
DONATE AVAXHOME:

Donate please!