Loading...
Done
Home > Music > +Metal > Experimental | Noise
Meshuggah - Alive (2010)
Posted By : hyzhak | Date : 04 Mar 2022 13:48:17 | Comments : 1
Meshuggah - Alive (2010)

Meshuggah - Alive (2010)
FLAC+CUE+LOG ~ 528 MB | MP3 [email protected] Kbps ~ 163 MB | Covers ~ 216 MB
Technical Experimental Metal | Sweden

Alive is a concert film by Swedish heavy metal band Meshuggah. The film was released as a double album (DVD with CD in digipak) through Nuclear Blast on 5 February 2022 in Europe and 9 February 2022 in North America.

Tracklisting:
01. Perpetual Black Second - 4:32
02. Electic Red - 6:02
03. Rational Gaze - 5:35
04. Pravus - 5:21
05. Lethargica - 5:52
06. Combustion - 4:16
07. Straws Pulled at Random - 5:05
08. New Millennium Cyanide Christ - 4:57
09. Stengah - 5:56
10. The Mouth Licking What You've Bled - 3:25
11. Humiliative - 5:21
12. Bleed - 7:55

Line-up:
Jens Kidman - vocals
Fredrik Thordendal - guitars
Marten Hagstrom - guitars
Tomas Haake - drums
Dick Lovgren - bass

Genre: Technical Experimental Metal
Country: Sweden
Web: http://www.meshuggah.net/
Sample: http://www.myspace.com/meshuggah
Wikipedia: http://en.wikipedia.org/wiki/Meshuggah
Lenght: 01:04:16
Codec: FLAC

EAC LOG
Exact Audio Copy V0.99 prebeta 4 from 23. January 2008

EAC extraction logfile from 6. February 2010, 23:50

Meshuggah / Alive

Used drive : HL-DT-STDVD-RAM GH22NP20 Adapter: 0 ID: 0

Read mode : Secure
Utilize accurate stream : Yes
Defeat audio cache : Yes
Make use of C2 pointers : No

Read offset correction : 102
Overread into Lead-In and Lead-Out : No
Fill up missing offset samples with silence : Yes
Delete leading and trailing silent blocks : No
Null samples used in CRC calculations : Yes
Used interface : Native Win32 interface for Win NT & 2000

Used output format : User Defined Encoder
Selected bitrate : 32 kBit/s
Quality : High
Add ID3 tag : No
Command line compressor : C:\Programme\Exact Audio Copy\Flac\flac.exe
Additional command line options : -6 -V %s


TOC of the extracted CD

Track | Start | Length | Start sector | End sector
---------------------------------------------------------
1 | 0:00.00 | 4:32.03 | 0 | 20402
2 | 4:32.03 | 6:02.14 | 20403 | 47566
3 | 10:34.17 | 5:35.25 | 47567 | 72716
4 | 16:09.42 | 5:21.02 | 72717 | 96793
5 | 21:30.44 | 5:51.49 | 96794 | 123167
6 | 27:22.18 | 4:15.62 | 123168 | 142354
7 | 31:38.05 | 5:05.14 | 142355 | 165243
8 | 36:43.19 | 4:56.56 | 165244 | 187499
9 | 41:40.00 | 5:56.10 | 187500 | 214209
10 | 47:36.10 | 3:24.67 | 214210 | 229576
11 | 51:01.02 | 5:20.56 | 229577 | 253632
12 | 56:21.58 | 7:54.57 | 253633 | 289239


Range status and errors

Selected range

Filename D:\MMT\MESHUGGAH [2010] [CD] Alive (Ltd. Edition) [EAC-FLAC] by Long Metalhead [MeTaLMaDNeSS.TeaM]\Alive\Meshuggah - Alive.wav

Peak level 100.0 %
Range quality 100.0 %
Copy CRC C09C62B6
Copy OK

No errors occurred


AccurateRip summary

Track 1 not present in database
Track 2 not present in database
Track 3 not present in database
Track 4 not present in database
Track 5 not present in database
Track 6 not present in database
Track 7 not present in database
Track 8 not present in database
Track 9 not present in database
Track 10 not present in database
Track 11 not present in database
Track 12 not present in database

None of the tracks are present in the AccurateRip database

End of status report

Download - Rapidshare.com with 3% recovery:

MP3
http://rapidshare.com/files/358840747/262100304MALos.part1.rar
http://rapidshare.com/files/358841594/262100304MALos.part2.rar

Lossless
http://rapidshare.com/files/358836325/262100304MA.part1.rar
http://rapidshare.com/files/358837537/262100304MA.part2.rar
http://rapidshare.com/files/358837821/262100304MA.part3.rar
http://rapidshare.com/files/358839076/262100304MA.part4.rar
http://rapidshare.com/files/358839208/262100304MA.part5.rar
http://rapidshare.com/files/358839471/262100304MA.part6.rar

Covers
http://rapidshare.com/files/358840725/262100304MACov.part1.rar
http://rapidshare.com/files/358836104/262100304MACov.part2.rar
http://rapidshare.com/files/358834904/262100304MACov.part3.rar


Прошу обратить внимание на то, что весь материал, представленный выше, предназначен исключительно для ознакомления! Приобретайте, пожалуйста, легальные диски, которые вне всякого сомнения станут достойным украшением вашей коллекции!
ADVERTISING » Download fast « ADVERTISING
Posted By: Vaglio Date: 05 Mar 2022 05:34:45
Thanks! Killer post! Meshuggah rules!
Recent searches:
DONATE AVAXHOME:

Donate please!