Loading...
Done
Home > Music > +Metal > Heavy Metal | NWOBHM
Posted By : Necromandus | Date : 18 Oct 2021 08:28:00 | Comments : 4 |

Skid Row - Slave To The Grind (1991)
EAC Rip | FLAC, IMG+CUE+LOG | 380 MB | Complete HQ Scans | PNG -> 270 MB
Label: Atlantic/MMG | Catalog Number: AMZY-257 | RAR 3% Rec. | HotFile & FileServe
... Japanese promo press with bonus song and 32-page photobook ...

Skid Row get harder and heavier on their sophomore effort, matching Sebastian Bach's gritty, streetwise rants to lean, driving riffs that manage to back up all the attitudinal posturing. Largely missing are the bits of pop-metal fluff that filled out Skid Row; in their place are tales from the dark side about drugs, corruption, and the like, with Bach affecting a tough, threatening persona most of the time. The furious noise kicked up behind Bach is usually more threatening than his overwrought vocal delivery, but Slave to the Grind is powerful enough that it doesn't really matter. "Monkey Business," "Get the Fuck Out," and the thrashy title track crush most anything on the debut, and power ballads like "Quicksand Jesus" and "Wasted Time" are far less generic than their Skid Row counterparts. Many observers were surprised when Slave to the Grind became the first heavy metal album to debut at number one on the Billboard charts, but it really was one of the best -- and heaviest -- examples of mainstream hard rock/heavy metal in the genre's MTV

~ by Steve Huey, AllMusic.com

Tracklist:

1. Monkey Business - 4:19
2. Slave To The Grind - 3:30
3. The Threat - 3:50
4. Quicksand Jesus - 5:26
5. Psycho Love - 3:57
6. Get The Fuck Out - 2:43
7. Living On A Chain Gang - 3:58
8. Creepshow - 3:58
9. In A Darkened Room - 3:55
10. Riot Act - 2:40
11. Mudkicker - 3:53
12. Wasted Time - 5:48
13. Beggar's Day (Japanese bonus track) - 4:03

EAC extraction logfile
Exact Audio Copy V0.99 prebeta 5 from 4. May 2009

EAC extraction logfile from 10. October 2010, 20:06

Skid Row / Slave To The Grind (Atlantic-MMG, AMZY-257, Japan)

Used drive : HL-DT-STDVDRAM GSA-T40N Adapter: 3 ID: 0

Read mode : Secure
Utilize accurate stream : Yes
Defeat audio cache : Yes
Make use of C2 pointers : No

Read offset correction : 667
Overread into Lead-In and Lead-Out : No
Fill up missing offset samples with silence : Yes
Delete leading and trailing silent blocks : No
Null samples used in CRC calculations : Yes
Used interface : Native Win32 interface for Win NT & 2000

Used output format : User Defined Encoder
Selected bitrate : 128 kBit/s
Quality : High
Add ID3 tag : No
Command line compressor : C:\Program Files\Exact Audio Copy\Flac\flac.exe
Additional command line options : -8 -V %s


TOC of the extracted CD

Track | Start | Length | Start sector | End sector
---------------------------------------------------------
1 | 0:00.00 | 4:18.57 | 0 | 19406
2 | 4:18.57 | 3:29.40 | 19407 | 35121
3 | 7:48.22 | 3:50.10 | 35122 | 52381
4 | 11:38.32 | 5:26.08 | 52382 | 76839
5 | 17:04.40 | 3:56.72 | 76840 | 94611
6 | 21:01.37 | 2:42.45 | 94612 | 106806
7 | 23:44.07 | 3:57.73 | 106807 | 124654
8 | 27:42.05 | 3:58.37 | 124655 | 142541
9 | 31:40.42 | 3:54.68 | 142542 | 160159
10 | 35:35.35 | 2:40.00 | 160160 | 172159
11 | 38:15.35 | 3:53.32 | 172160 | 189666
12 | 42:08.67 | 5:47.70 | 189667 | 215761
13 | 47:56.62 | 4:03.28 | 215762 | 234014


Range status and errors

Selected range

Filename C:\Ripped By liveevil\Skid Row - Slave To The Grind (Atlantic-MMG, AMZY-257, Japan).wav

Peak level 100.0 %
Range quality 100.0 %
Test CRC 29EB45F6
Copy CRC 29EB45F6
Copy OK

No errors occurred


AccurateRip summary

Track 1 accurately ripped (confidence 2) [E17BF197]
Track 2 accurately ripped (confidence 2) [39A30E9F]
Track 3 accurately ripped (confidence 2) [84152FEC]
Track 4 accurately ripped (confidence 2) [5CE3F49E]
Track 5 accurately ripped (confidence 2) [60D3EAE5]
Track 6 accurately ripped (confidence 2) [73AD2350]
Track 7 cannot be verified as accurate (confidence 3) [E9B95719], AccurateRip returned [933F1654]
Track 8 accurately ripped (confidence 2) [7BB107AA]
Track 9 accurately ripped (confidence 2) [7C54454E]
Track 10 accurately ripped (confidence 2) [98B8D36C]
Track 11 accurately ripped (confidence 2) [7F0C708A]
Track 12 accurately ripped (confidence 2) [B3E84FF8]
Track 13 accurately ripped (confidence 2) [80CCF32C]

12 track(s) accurately ripped
1 track(s) could not be verified as accurate

Some tracks could not be verified as accurate

End of status report

auCDtect -v m0
-----------------------

DON'T MODIFY THIS FILE

-----------------------

PERFORMER: auCDtect Task Manager, ver. 1.5.1RC3 build 1.5.1.4
Copyright (c) 2008-2010 y-soft. All rights reserved
http://y-soft.org

ANALYZER: auCDtect: CD records authenticity detector, version 0.8.2
Copyright (c) 2004 Oleg Berngardt. All rights reserved.
Copyright (c) 2004 Alexander Djourik. All rights reserved.


FILE: Skid Row - Slave To The Grind (Atlantic-MMG, AMZY-257, Japan).wav
Size: 550403324 Hash: 463E94A080461F8206A282223DCF6C4C Accuracy: -m0
Conclusion: CDDA 100%
Signature: 5037FBC109B622BF55B3F9227D0C18A25D3D4BB1

• Sebastian Bach - vocals
• Scotti Hill - guitar
• Dave "The Snake" Sabo - guitar
• Rachel Bolan - bass
• Rob Affuso - drums

Produced and mixed by Michael Wagener.
Recorded at New River Studios, Fort Lauderdale, Florida and Scream Studios, Studio City, California.
Mixed at Scream Studios, Studio City, California.
Produced and mixed for Double Trouble Productions, Inc.
Mastered at Sterling Sound, New York.

lossless* + covers via HotFile.com:
Lossless part1.rar
Lossless part2.rar
Lossless part3.rar
Lossless part4.rar
Covers (PNG 300 dpi).rar

---------

lossless* + covers via FileServe.com::
Lossless part1.rar
Lossless part2.rar
Lossless part3.rar
Lossless part4.rar
Covers (PNG 300 dpi).rar

PASSWORD: www.AvaxHome.ru
Please, do not write these links at any web pages. Enjoy & keep the files alive!

* - EAC Image, standard LOG, embedded cuesheet, Foobar2000 ready
Fully repackaged, Huge thanks to my friend Sanych aka liveevil!

---------
ADVERTISING » High Speed Download « ADVERTISING




Posted By: Rehabilly Date: 18 Oct 2021 09:10:18
EXCELLENT! Many thanks!
Posted By: lrhg Date: 18 Oct 2021 10:59:01
Tks m8, mostly.
Posted By: marshallmars Date: 18 Oct 2021 15:48:32
Great post!!! Now, how about the debut???
Posted By: AgnusDei Date: 19 Oct 2021 06:40:42
Thank you.
Recent searches: