Loading...
Done
Home > Music > +Metal > Black Metal
Posted By : АПРОФЕН | Date : 18 Oct 2021 06:51:53 | Comments : 0 |

Coprolith - Cold Grief Relief (2010)
EAC Rip | FLAC (image) + CUE + LOG | mp3 @ 320 Kbps CBR | Playing time: 44:57 | 388 Mb + 136 Mb
Death / Black Metal | Covers and Booklets (400dpi) | Label: Violent Journey Records | Cat. #: vjr027 | Finland

Coprolith was an unknown black metal band to me until now. Since their inception in 2001, the Finnish group has released three demo’s (‘Supreme Hate’ / 2002, ‘World Falls Down’ / 2006 and ‘Other Me’ / 2009) and one self-released 7” EP entitled ‘Death Only’ in 2008. After the final demo (which was not sold to the public and only send to record companies) the band signed a deal with the growing Finnish underground label Violent Journey Records.

The band emphasizes on strong rhythm, brutality and bloodshed and I could notice some old bands' influences: very mid-fast paced black metal with some time changes thrown in. For fans of nineties black metal this album will be perfect. It evokes all the experience of Norwegian black metal, combines it with the ferociousness of bands such as Marduk and (older) Immortal and is well produced with a crunchy sound. Prepare to be blasted away by Coprolith’s powers of darkness!
www.lordsofmetal.nl

Tracklist:
1. Intro - All Life Gone 01:19
2. Losing It 04:16
3. Drowned 03:34
4. Dead Endless 05:17
5. Hate Rapture 04:31
6. Flammable Soul 03:40
7. Point Zero 04:40
8. Dream Within Dream 02:41
9. Cold Grief Relief 10:47
10. Freezing Moon (Mayhem cover) 04:12


Line-up:
Ben Pakarinen - Vocals, Guitars (Furia (Fin), I Lied, Cavus)
Jouni Korhonen - Bass (Cavus)
Aleksi Tervo - Drums
Kuli - Guitars (Skulldriver)

EAC log

Exact Audio Copy V0.99 prebeta 5 from 4. May 2009

EAC extraction logfile from 19. August 2010, 13:16

Coprolith / Cold Grief Relief

Used drive : _NEC DVD_RW ND-3540A Adapter: 0 ID: 0

Read mode : Secure
Utilize accurate stream : Yes
Defeat audio cache : Yes
Make use of C2 pointers : No

Read offset correction : 48
Overread into Lead-In and Lead-Out : No
Fill up missing offset samples with silence : Yes
Delete leading and trailing silent blocks : No
Null samples used in CRC calculations : Yes
Used interface : Native Win32 interface for Win NT & 2000

Used output format : User Defined Encoder
Selected bitrate : 40 kBit/s
Quality : High
Add ID3 tag : No
Command line compressor : C:\Program Files\Exact Audio Copy\FLAC.EXE
Additional command line options : -6 -V %s


TOC of the extracted CD

Track | Start | Length | Start sector | End sector
---------------------------------------------------------
1 | 0:00.00 | 1:18.27 | 0 | 5876
2 | 1:18.27 | 4:15.61 | 5877 | 25062
3 | 5:34.13 | 3:33.61 | 25063 | 41098
4 | 9:07.74 | 5:16.11 | 41099 | 64809
5 | 14:24.10 | 4:30.66 | 64810 | 85125
6 | 18:55.01 | 3:39.32 | 85126 | 101582
7 | 22:34.33 | 4:39.23 | 101583 | 122530
8 | 27:13.56 | 2:40.40 | 122531 | 134570
9 | 29:54.21 | 10:45.69 | 134571 | 183014
10 | 40:40.15 | 4:12.02 | 183015 | 201916


Range status and errors

Selected range

Filename E:\COPROLITH [2010] [CD] Cold Grief Relief [EAC-FLAC] by snecy [MeTaLMaDNeSS.TeaM]\Coprolith - Cold Grief Relief.wav

Peak level 98.7 %
Range quality 100.0 %
Copy CRC D900313D
Copy OK

No errors occurred


AccurateRip summary

Track 1 not present in database
Track 2 not present in database
Track 3 not present in database
Track 4 not present in database
Track 5 not present in database
Track 6 not present in database
Track 7 not present in database
Track 8 not present in database
Track 9 not present in database
Track 10 not present in database

None of the tracks are present in the AccurateRip database

End of status report

Download:

@ Filesonic
Lossless / mp3

@ Hotfile
Lossless / mp3

@ Fileserve
Lossless / mp3


password: www.AvaxHome.ru

Please, PM me if links are dead.
All Thanks goes to MeTaLMaDNeSS.TeaM!

Enjoy!
ADVERTISING » High Speed Download « ADVERTISING




No comments for the news
Recent searches: