Loading...
Done
Home > Music > +Metal
Posted By : Shar'EmAll | Date : 17 Sep 2021 15:15:00 | Comments : 1 |

Amorphis - Magic And Mayhem: Tales From The Early Years (2010)
EAC | FLAC-IMG+CUE+LOG > 480 MB | Complete Scans > 81 MB | MP3 CBR 320 Kbps > 140 MB
Melodic Death/Doom/Gothic/Folk Metal | 60:39 minutes | Label: Nuclear Blast GmbH # NB 2578-0

To celebrate the 20th anniversary of Amorphis, the band has re-recorded a selection of classic tracks for a special retrospective. Magic & Mayhem – Tales From The Early Years will be in stores September 17 and features songs originally released between 1991 and 1996.


These are expensive times for the die-hard Amorphis fan. July saw the release of the DVD 'Forging The Land Of Thousand Lakes', which is recommended by the way; and on September 17th there will be yet another opportunity to spend some of your hard-earned cash on your favourite Finnish metal act. The product is titled 'Magic & Mayhem', which should familiar, but that will probably apply to all the tunes present.

Finland's biggest metal export has selected thirteen songs from the earliest period of their career (1991 to 1996). Moreover, Amorphis re-entered a studio in order to re-record them, which is understandable. As you may or may not know, Amorphis have 'new' vocalist Tomi Joutsen in the band since 2005, but live the band still plays lots of older songs (cf. the aforementioned DVD). For a lot of recent fans it might just be more fun and more recognizable to listen to those songs at home in a Joutsen treatment instead of having to buy 'The Karelian Isthmus' (1993), 'Tales From The Thousand Lakes' (1994) and 'Elegy' (1996) with their former singers.

At the same time Amorphis have taken the opportunity to implement a couple of minor changes to the arrangements of the songs. This mainly means that the keyboard plays a slightly bigger role and it strikes me that the main riff in 'Against Widows' has been slightly tweaked and now sounds less sharp (which is the only significant effect in my experience). What I do not understand at all, by the way, is the inclusion of a terrible cover of The Doors' 'Light My Fire' instead of any other song. All in all this project has something interesting to offer for any Amorphis fan out there.

-- Review written by Richard G. for www.lordsofmetal.nl


Tracklist:

01. Magic And Mayhem
02. Vulgar Necrolatry
03. Into Hiding
04. Black Winter Day
05. On Rich And Poor
06. Exile Of The Sons Of Uisliu
07. The Castaway
08. Song Of The Troubled One
09. Sign From The North Side
10. Drowned Maid
11. Against Widows
12. My Kantele
13. Light My Fire [Bonus Track]

Produced by Amorphis. Engineered by Sami Koivisto.
Recorded at Sonic Pump Studios at March 2010.
Mixed by Millo Karmila at Finnvoxx Studios, April 2010.
Mastered by Mila Jussila at Finnvox Studios, May 2010.

- Tomi Joutsen: vocals
- Esa Holopainen: lead guitar
- Tomi Koivusaari: rhythm guitar, vocals
- Niclas Etelävuori: bass
- Santeri Kallio: keyboards
- Jan Rechberger: drums

All thanks goes to Ilijan & MMT!

EAC LOG
Exact Audio Copy V0.99 prebeta 4 from 23. January 2008

EAC extraction logfile from 14. September 2010, 20:23

Amorphis / Magic And Mayhem - Tales From The Early Years

Used drive : ATAPI DVD A DH20A4P Adapter: 3 ID: 0

Read mode : Secure
Utilize accurate stream : Yes
Defeat audio cache : Yes
Make use of C2 pointers : No

Read offset correction : 6
Overread into Lead-In and Lead-Out : No
Fill up missing offset samples with silence : Yes
Delete leading and trailing silent blocks : No
Null samples used in CRC calculations : Yes
Used interface : Installed external ASPI interface

Used output format : Monkey's Audio Lossless Encoder
Selected bitrate : High Lossless Compression
Quality : High
Add ID3 tag : Yes
Command line compressor : C:\Program Files\Monkey's Audio\MAC.exe


TOC of the extracted CD

Track | Start | Length | Start sector | End sector
---------------------------------------------------------
1 | 0:00.00 | 5:24.02 | 0 | 24301
2 | 5:24.02 | 4:44.23 | 24302 | 45624
3 | 10:08.25 | 3:53.01 | 45625 | 63100
4 | 14:01.26 | 3:55.05 | 63101 | 80730
5 | 17:56.31 | 5:24.34 | 80731 | 105064
6 | 23:20.65 | 3:56.69 | 105065 | 122833
7 | 27:17.59 | 5:56.22 | 122834 | 149555
8 | 33:14.06 | 4:14.07 | 149556 | 168612
9 | 37:28.13 | 5:04.53 | 168613 | 191465
10 | 42:32.66 | 4:11.58 | 191466 | 210348
11 | 46:44.49 | 4:19.27 | 210349 | 229800
12 | 51:04.01 | 6:49.45 | 229801 | 260520
13 | 57:53.46 | 2:44.73 | 260521 | 272893


Range status and errors

Selected range

Filename D:\Download\Amorphis - Magic And Mayhem - Tales From The Early Years.wav

Peak level 97.7 %
Range quality 100.0 %
Copy CRC 321A5AB3
Copy OK

No errors occurred


AccurateRip summary

Track 1 not present in database
Track 2 not present in database
Track 3 not present in database
Track 4 not present in database
Track 5 not present in database
Track 6 not present in database
Track 7 not present in database
Track 8 not present in database
Track 9 not present in database
Track 10 not present in database
Track 11 not present in database
Track 12 not present in database
Track 13 not present in database

None of the tracks are present in the AccurateRip database

End of status report


DOWNLOAD: Amorphis - Magic And Mayhem: Tales From The Early Years [LE 2010]

FileSonic

LOSSLESS
http://www.filesonic.com/file/19937877/Amorphis2010LEL.part1.rar
http://www.filesonic.com/file/19936745/Amorphis2010LEL.part2.rar
http://www.filesonic.com/file/19937459/Amorphis2010LEL.part3.rar
http://www.filesonic.com/file/19936751/Amorphis2010LEL.part4.rar
http://www.filesonic.com/file/19937313/Amorphis2010LEL.part5.rar

Scans
http://www.filesonic.com/file/19939117/Amorphis2010LES.rar

MP3
http://www.filesonic.com/file/19937193/Amorphis2010LEM.part1.rar
http://www.filesonic.com/file/19937493/Amorphis2010LEM.part2.rar


Hotfile
LOSSLESS (only)
http://hotfile.com/dl/70047151/fd0f4d2/Amorphis2010LEL.part1.rar
http://hotfile.com/dl/70047227/e4afb56/Amorphis2010LEL.part2.rar
http://hotfile.com/dl/70047725/b31d93b/Amorphis2010LEL.part3.rar
http://hotfile.com/dl/70048081/af0e747/Amorphis2010LEL.part4.rar
http://hotfile.com/dl/70049415/da9aa68/Amorphis2010LEL.part5.rar


FileServe
LOSSLESS
http://www.fileserve.com/file/vUP9gKg/Amorphis2010LEL.part1.rar
http://www.fileserve.com/file/RvWWPWt/Amorphis2010LEL.part2.rar
http://www.fileserve.com/file/BHJCKvx/Amorphis2010LEL.part3.rar
http://www.fileserve.com/file/q6BHDkG/Amorphis2010LEL.part4.rar
http://www.fileserve.com/file/TNxRPVj/Amorphis2010LEL.part5.rar

Scans
http://www.fileserve.com/file/z7AhP9X/Amorphis2010LES.rar

MP3
http://www.fileserve.com/file/TXVkPgA/Amorphis2010LEM.part1.rar
http://www.fileserve.com/file/KH53gkR/Amorphis2010LEM.part2.rar


The files are interchangeable. Recovery info has included.

ADVERTISING » High Speed Download « ADVERTISING




Posted By: Kikin Date: 17 Sep 2021 15:16:33
Thank you for lossless!!
Recent searches: