Loading...
Done
Home > Music
Maxi Priest - Maxi Priest Best Of Me (Japan, 1991)
Posted By : Xmaster | Date : 28 Feb 2022 02:30:22 | Comments : 0

Maxi Priest - Maxi Priest Best Of Me (Japan, 1991)
1CD | FLAC-IMAGE+CUE +LOG +SCANS | November 12, 2021 | 657,65 МB
Genre: Pop, Reggae | Label: Atlantic / Wea


From amazon.com
I still remember 14years back, when I was just crusing with my boyfriend around the island where I went to college , and he started playing the new tape he just bought earlier that afternoon. It was Maxi's and I was simply mesmerized by how 'Wild world' and 'Some guys have all the luck' sounded. I did not know anythinhg about reggae including Maxi back then but that was it! After I first heard 'Some guys have all the luck', I'd become one of the biggest reggae fans in the world in general and of Maxi Priest in particular. I try to take as many chances as possible to attend to his concert and trust me, as a Korean who currenltly lives in Korea, it ain't that easy.
Maxi is. to me, still the best and the most favorite of all time. Now that we have this CD which is a collection of just a few of his best songs from vintage to contemperary, you will be more than satisfied. Scank, groove or just chill out with it.
The whole CD is full of joy and the spirit of Rastafari!!!

From wikipedia.org
Biography




Tracklist:

01. Wild World [0:03:36.33]
02. In The Springtime [0:04:08.17]
03. Should I [0:03:33.66]
04. Close To You [0:05:28.96]
05. How Can We Ease The Pain [0:05:11.60]
06. Let Me Know [0:03:33.37]
07. Housecall [0:03:57.53]
08. Just A Little Bit Longer [0:03:37.33]
09. Caution [0:04:52.46]
10. Some Guys Have All The Luck [0:03:34.73]
11. I Know Love [0:04:39.16]
12. Strollin' On [0:03:19.10]
13. Best Of Me [0:03:08.13]
14. Crazy Love [0:04:37.00]
15. Woman In You [0:04:56.69]
16. Peace Throughout The World [0:03:59.24]

EAC LOG
Exact Audio Copy V0.99 prebeta 5 from 4. May 2009

EAC extraction logfile from 15. November 2009, 16:36

Maxi Priest / Maxi Priest: Best Of Me

Used drive : PLEXTOR DVDR PX-716A Adapter: 0 ID: 0

Read mode : Secure
Utilize accurate stream : Yes
Defeat audio cache : Yes
Make use of C2 pointers : No

Read offset correction : 30
Overread into Lead-In and Lead-Out : Yes
Fill up missing offset samples with silence : Yes
Delete leading and trailing silent blocks : No
Null samples used in CRC calculations : Yes
Used interface : Native Win32 interface for Win NT & 2000

Used output format : User Defined Encoder
Selected bitrate : 1024 kBit/s
Quality : High
Add ID3 tag : No
Command line compressor : C:\Program Files\FLAC\flac.exe
Additional command line options : -8 -V -T "ARTIST=%a" -T "TITLE=%t" -T "ALBUM=%g" -T "DATE=%y" -T "TRACKNUMBER=%n" -T "GENRE=%m" -T "COMMENT=EAC FLAC -8" %s

TOC of the extracted CD

Track | Start | Length | Start sector | End sector
---------------------------------------------------------
1 | 0:00.37 | 3:36.25 | 37 | 16261
2 | 3:36.62 | 4:08.13 | 16262 | 34874
3 | 7:45.00 | 3:33.50 | 34875 | 50899
4 | 11:18.50 | 5:28.72 | 50900 | 75571
5 | 16:47.47 | 5:11.45 | 75572 | 98941
6 | 21:59.17 | 3:33.28 | 98942 | 114944
7 | 25:32.45 | 3:57.40 | 114945 | 132759
8 | 29:30.10 | 3:37.25 | 132760 | 149059
9 | 33:07.35 | 4:52.35 | 149060 | 170994
10 | 37:59.70 | 3:34.55 | 170995 | 187099
11 | 41:34.50 | 4:39.12 | 187100 | 208036
12 | 46:13.62 | 3:19.08 | 208037 | 222969
13 | 49:32.70 | 3:08.10 | 222970 | 237079
14 | 52:41.05 | 4:37.00 | 237080 | 257854
15 | 57:18.05 | 4:56.52 | 257855 | 280106
16 | 62:14.57 | 3:59.18 | 280107 | 298049

Range status and errors

Selected range

Filename E:\mtorrent_flac\Maxi Priest - Best Of Me (Japan)\Maxi Priest - Maxi Priest Best Of Me.wav

Peak level 100.0 %
Range quality 100.0 %
Test CRC 0661A62A
Copy CRC 0661A62A
Copy OK

No errors occurred

AccurateRip summary

Track 1 not present in database
Track 2 not present in database
Track 3 not present in database
Track 4 not present in database
Track 5 not present in database
Track 6 not present in database
Track 7 not present in database
Track 8 not present in database
Track 9 not present in database
Track 10 not present in database
Track 11 not present in database
Track 12 not present in database
Track 13 not present in database
Track 14 not present in database
Track 15 not present in database
Track 16 not present in database

None of the tracks are present in the AccurateRip database

End of status report




All thanks for original release going to -Konstantin_slash-

ADVERTISING » Download fast « ADVERTISING
No comments for the news
Recent searches:
DONATE AVAXHOME:

Donate please!