Loading...
Done
Home > Music
VA - Maxi Hit-Sensation - 80er, 90er & Deutsch (2005)
Posted By : Xmaster | Date : 28 Feb 2022 20:17:55 | Comments : 3

VA - Maxi Hit-Sensation - 80er, 90er & Deutsch (2005)
3CD | FLAC-IMAGE+CUE +LOG +SCANS | 29. August 2005 | 1.81 Gb
Genre: Disco, Dance, Pop | Label: Edel


From amazon.de
Die drei CDs enthalten viele Erinnerungen an die 80'er und 90'er Jahre. Die Soundqualitat ist sehr gut und es sind ein paar echte Schatze dabei, die es sonst noch nie auf CD gab. Auffallig ist bei der Auswahl, dass viele Titel aus der Feder von Dieter Bohlen stammen, hier muss jeder fur sich entscheiden, ob das ein Vor- oder Nachteil ist. Wem jedoch der Sound von Dieter Bohlen gefallt, der wird auch Freude an den anderen Tracks haben. Man wunscht sich nur, man hatte damals in der Tanzschule beim Disco-Fox besser aufgepasst...
Auch die deutsche CD bietet eine interessante Auswahl, auch wenn ein paar Tracks etwas "grenzwertig" sind (Klaus & Klaus....). Aber, die nachste (Karnevalls-)Party kommt bestimmt.
Insgesamt ist diese Compilation ein Muss fur alle Fans der guten alten 80'er-Jahre-MAXIs.

INFO
amazon.de


Tracklist:


CD 1
01. London Boys - London Nights (12'' Version) 8:11
02. Blue System - Under My Skin (Long Version) 5:15
03. Modern Talking - You Can Win If You Want (Special Dance Version) 5:18
04. David Hasselhoff - Looking For Freedom (Maxi-Version) 5:31
05. Fancy - Turbo Dancer Remix 8:14
06. C.C.Catch - Soul Survivor (Long Version-Survivor Mix) 5:13
07. Bad Boys Blue - A World Without You (Michelle) (Dance Mix) 5:45
08. Joe Lockwood - Hey You (Maxi) 7:03
09. Eddy Huntington - U.S.S.R.(Long Version) 5:57
10. Max Him - Japanese Girl (Maxi Version) 6:00
11. Kay Franzes - Take Me And You'll Win 5:47
12. Camouflage - Strangers Thoughts (Longer) 6:00


CD 2
01. Ace Of Base - All That She Wants (12 Inch Version) 6:47
02. DJ Bobo - Love Is All Around (Extended Mix I) 5:30
03. Army Of Lovers - Israelism (Coldcalfhorahhorror Mix) 6:56
04. Chocolate - La Ola (Barcelona Mix) 4:46
05. Gentlekick - Stay By You Tonight (12'' Fox Mix) 6:35
06. Bonnie Tyler - Back Home (Radio Version II) 3:45
07. Thomas Anders - Can't Give You Anything (But My Love) (Maxi) 6:42
08. Errol Brown - Secret Rendezvous (Extended Dance Mix) 5:02
09. Tommie Jenkins - Never Too Late (Extended Version) 5:21
10. Justian - All The Best 3:54
11. Chris Norman - Broken Heroes (Maxi-Version) 7:31
12. Lory ''Bonnie'' Bianco - A Cry In The Night 4:45
13. C.C.Catch - One Night's Not Enough (Long Version) 5:17
14. Matt Bianco - More Than I Can Bear (Remix) 4:41


CD 3
01. Humpe & Humpe - No Longer Friends (Extended Version) 5:45
02. Thomas Forstner - Song Of Love (12'' Version) 4:43
03. Howard Carpendale - Laura Jane (Maxi-Single) 6:17
04. Marianne Rosenberg - Ich Denk An Dich (Maxi-Version) 5:08
05. Matthias Reim - Verdammt Ich Lieb Dich (Vollgas-Mix) 4:10
06. Jurgen Drews - Mit Dir Sofort Und Ohne Ende (Maxi-Version) 6:30
07. Verliebte Jungs - Willst Du Meine Kinder Kriegen (Tanz Mix) 4:02
08. Jill Newton - Als Ob Sie Bette Davis War' (Bette Davis Eyes) 3:37
09. Guildo Horn - Ich Find' Schlager Toll (Grobe Version) 5:01
10. Dieter Thomas Kuhn - Es War Sommer (Die Erinnerung) 4:31
11. Klaus & Klaus - An Der Nordseekuste (Maxi-Version) 5:32
12. Klaus & Klaus - Der Eiermann (Maxi-Version) 4:44
13. Der Grosse Klaus - Heidi Resi (Maxi-Version) 5:19
14. Torfrock - Beinhart (Long Version) 4:26

EAC LOG CD1
Exact Audio Copy V0.99 prebeta 5 from 4. May 2009

Отчёт EAC об извлечении, выполненном 21. февраля 2010, 20:44

Various / Maxi Hit-Sensation - 80er, 90er & Deutsch CD 1

Дисковод: PIONEER DVD-RW DVR-107D Adapter: 3 ID: 0

Режим чтения : Достоверность
Использование точного потока : Да
Отключение кэша аудио : Да
Использование указателей C2 : Нет

Коррекция смещения при чтении : 48
Способность читать области Lead-in и Lead-out : Нет
Заполнение пропущенных сэмплов тишиной : Да
Удаление блоков с тишиной в начале и конце : Нет
При вычислениях CRC использовались нулевые сэмплы : Да
Интерфейс : Встроенный Win32-интерфейс для Win NT/2000

Выходной формат : Внутренние WAV-операции
Формат сэмплов : 44.100 Гц; 16 бит; стерео

TOC извлечённого CD

Трек | Старт | Длительность | Начальный сектор | Конечный сектор
---------------------------------------------------------------------
1 | 0:00.00 | 8:10.74 | 0 | 36823
2 | 8:10.74 | 5:14.53 | 36824 | 60426
3 | 13:25.52 | 5:17.69 | 60427 | 84270
4 | 18:43.46 | 5:31.20 | 84271 | 109115
5 | 24:14.66 | 8:13.49 | 109116 | 146139
6 | 32:28.40 | 5:13.21 | 146140 | 169635
7 | 37:41.61 | 5:44.55 | 169636 | 195490
8 | 43:26.41 | 7:02.49 | 195491 | 227189
9 | 50:29.15 | 5:56.63 | 227190 | 253952
10 | 56:26.03 | 6:00.33 | 253953 | 280985
11 | 62:26.36 | 5:46.55 | 280986 | 306990
12 | 68:13.16 | 5:59.59 | 306991 | 333974

Характеристики диапазона извлечения и сообщения об ошибках

Выбранный диапазон

Имя файла H:\All\Music\Various - Maxi Hit-Sensation - 80er, 90er & Deutsch CD 1\Various - Maxi Hit-Sensation - 80er, 90er & Deutsch CD 1.wav

Пиковый уровень 98.5 %
Качество диапазона 99.9 %
CRC теста D3132B86
CRC копии D3132B86
Копирование... OK

Ошибок не произошло

AccurateRip: сводка

Трек 1 нет в базе данных
Трек 2 нет в базе данных
Трек 3 нет в базе данных
Трек 4 нет в базе данных
Трек 5 нет в базе данных
Трек 6 нет в базе данных
Трек 7 нет в базе данных
Трек 8 нет в базе данных
Трек 9 нет в базе данных
Трек 10 нет в базе данных
Трек 11 нет в базе данных
Трек 12 нет в базе данных

Ни одного трека нет в базе AccurateRip

Конец отчёта


EAC LOG CD2
Exact Audio Copy V0.99 prebeta 5 from 4. May 2009

Отчёт EAC об извлечении, выполненном 21. февраля 2010, 21:26

Various / Maxi Hit-Sensation - 80er, 90er & Deutsch CD 2

Дисковод: PIONEER DVD-RW DVR-107D Adapter: 3 ID: 0

Режим чтения : Достоверность
Использование точного потока : Да
Отключение кэша аудио : Да
Использование указателей C2 : Нет

Коррекция смещения при чтении : 48
Способность читать области Lead-in и Lead-out : Нет
Заполнение пропущенных сэмплов тишиной : Да
Удаление блоков с тишиной в начале и конце : Нет
При вычислениях CRC использовались нулевые сэмплы : Да
Интерфейс : Встроенный Win32-интерфейс для Win NT/2000

Выходной формат : Внутренние WAV-операции
Формат сэмплов : 44.100 Гц; 16 бит; стерео

TOC извлечённого CD

Трек | Старт | Длительность | Начальный сектор | Конечный сектор
---------------------------------------------------------------------
1 | 0:00.00 | 6:47.22 | 0 | 30546
2 | 6:47.22 | 5:30.15 | 30547 | 55311
3 | 12:17.37 | 6:55.65 | 55312 | 86501
4 | 19:13.27 | 4:46.15 | 86502 | 107966
5 | 23:59.42 | 6:35.25 | 107967 | 137616
6 | 30:34.67 | 3:45.14 | 137617 | 154505
7 | 34:20.06 | 6:42.11 | 154506 | 184666
8 | 41:02.17 | 5:02.13 | 184667 | 207329
9 | 46:04.30 | 5:21.22 | 207330 | 231426
10 | 51:25.52 | 3:54.00 | 231427 | 248976
11 | 55:19.52 | 7:30.52 | 248977 | 282778
12 | 62:50.29 | 4:45.24 | 282779 | 304177
13 | 67:35.53 | 5:16.48 | 304178 | 327925
14 | 72:52.26 | 4:40.49 | 327926 | 348974

Характеристики диапазона извлечения и сообщения об ошибках

Выбранный диапазон

Имя файла H:\All\Music\Various - Maxi Hit-Sensation - 80er, 90er & Deutsch CD 2\Various - Maxi Hit-Sensation - 80er, 90er & Deutsch CD 2.wav

Пиковый уровень 98.5 %
Качество диапазона 100.0 %
CRC теста 67025A9A
CRC копии 67025A9A
Копирование... OK

Ошибок не произошло

AccurateRip: сводка

Трек 1 нет в базе данных
Трек 2 нет в базе данных
Трек 3 нет в базе данных
Трек 4 нет в базе данных
Трек 5 нет в базе данных
Трек 6 нет в базе данных
Трек 7 нет в базе данных
Трек 8 нет в базе данных
Трек 9 нет в базе данных
Трек 10 нет в базе данных
Трек 11 нет в базе данных
Трек 12 нет в базе данных
Трек 13 нет в базе данных
Трек 14 нет в базе данных

Ни одного трека нет в базе AccurateRip

Конец отчёта


EAC LOG CD3
Exact Audio Copy V0.99 prebeta 5 from 4. May 2009

Отчёт EAC об извлечении, выполненном 21. февраля 2010, 23:09

Various / Maxi Hit-Sensation - 80er, 90er & Deutsch CD 3

Дисковод: PIONEER DVD-RW DVR-107D Adapter: 3 ID: 0

Режим чтения : Достоверность
Использование точного потока : Да
Отключение кэша аудио : Да
Использование указателей C2 : Нет

Коррекция смещения при чтении : 48
Способность читать области Lead-in и Lead-out : Нет
Заполнение пропущенных сэмплов тишиной : Да
Удаление блоков с тишиной в начале и конце : Нет
При вычислениях CRC использовались нулевые сэмплы : Да
Интерфейс : Встроенный Win32-интерфейс для Win NT/2000

Выходной формат : Внутренние WAV-операции
Формат сэмплов : 44.100 Гц; 16 бит; стерео

TOC извлечённого CD

Трек | Старт | Длительность | Начальный сектор | Конечный сектор
---------------------------------------------------------------------
1 | 0:00.00 | 5:45.23 | 0 | 25897
2 | 5:45.23 | 4:43.30 | 25898 | 47152
3 | 10:28.53 | 6:16.67 | 47153 | 75419
4 | 16:45.45 | 5:07.42 | 75420 | 98486
5 | 21:53.12 | 4:09.43 | 98487 | 117204
6 | 26:02.55 | 6:30.22 | 117205 | 146476
7 | 32:33.02 | 4:01.55 | 146477 | 164606
8 | 36:34.57 | 3:36.46 | 164607 | 180852
9 | 40:11.28 | 5:01.18 | 180853 | 203445
10 | 45:12.46 | 4:30.66 | 203446 | 223761
11 | 49:43.37 | 5:31.43 | 223762 | 248629
12 | 55:15.05 | 4:43.44 | 248630 | 269898
13 | 59:58.49 | 5:18.50 | 269899 | 293798
14 | 65:17.24 | 4:25.51 | 293799 | 313724

Характеристики диапазона извлечения и сообщения об ошибках

Выбранный диапазон

Имя файла H:\All\Music\Various - Maxi Hit-Sensation - 80er, 90er & Deutsch CD 3\Various - Maxi Hit-Sensation - 80er, 90er & Deutsch CD 3.wav

Пиковый уровень 100.0 %
Качество диапазона 99.9 %
CRC теста 5A2F1DE5
CRC копии 5A2F1DE5
Копирование... OK

Ошибок не произошло

AccurateRip: сводка

Трек 1 нет в базе данных
Трек 2 нет в базе данных
Трек 3 нет в базе данных
Трек 4 нет в базе данных
Трек 5 нет в базе данных
Трек 6 нет в базе данных
Трек 7 нет в базе данных
Трек 8 нет в базе данных
Трек 9 нет в базе данных
Трек 10 нет в базе данных
Трек 11 нет в базе данных
Трек 12 нет в базе данных
Трек 13 нет в базе данных
Трек 14 нет в базе данных

Ни одного трека нет в базе AccurateRip

Конец отчёта




All thanks for original release going to -Pol Alex-

ADVERTISING » Download fast « ADVERTISING
Posted By: musicnaut Date: 28 Feb 2022 20:37:44
part 7 in rapidshare it's missing :(
Can u reupload please ?
Thank u
Posted By: Xmaster Date: 28 Feb 2022 21:09:42
is temporary. Rapidshare Server is not in order
NEW LINK ! rapidshare.com part 7
http://rapidshare.com/files/357201828/FSDg_avaxhome.ws.part07.rar
Posted By: sokos Date: 28 Feb 2022 22:55:04
Many Thanks.
Recent searches:
DONATE AVAXHOME:

Donate please!