Loading...
Done
Home > Music
VA - Maxi Hit-Sensation 97-04 (2007)
Posted By : Xmaster | Date : 28 Feb 2022 02:21:34 | Comments : 0

VA - Maxi Hit-Sensation 97-04 (2007)
3CD | FLAC-IMAGE+CUE +LOG +SCANS | 16. Februar 2007 | 1.83 GB
Genre: Dance, Disco, Pop | Label: Edel Enter


INFO
amazon.de

Tracklist:

CD 1
01. A Touch Of Class - Around The World (Ruegsegger # Wittwer Club Mix) 5:38
02. Eiffel 65 - Lucky (In My Life) (Gabry Ponte Club Mix) 5:25
03. Touche - This Goodbye Is Not Forever (DJ Lucky Extended Version) 5:40
04. Modern Talking - Juliet (Jeo's Remix) 5:05
05. B3 - Nightfever (Extended Disco Mix) 6:14
06. Millane Fernandez - Boom Boom (Extended Remix) 6:33
07. Key West - Sorry, Sorry, Sorry (Extended Mix) 5:13
08. The Disco Boys - Born To Be Alive (Extended Version) 6:48
09. Hermes House Band - Can't Take My Eyes Off Of You (Extended Version) 7:10
10. Mad' House - Like A Prayer (Main Mix) 4:22
11. French Affair - Sexy (Remix) 5:33
12. Right Said Fred - Lovesong (Commander Tom Mix) 6:11
13. Kate Ryan - Desenchantee (Club Version) 8:14

CD 2
01. Rick Astley - Sleeping (HiFi Crash Remix 2) 6:27
02. Stephen Gately - New Beginning (Love To Infinity Master Mix) 6:48
03. The Cardigans - Lovefool (Tee's Frozen Sun Mix) 7:51
04. Sheena Easton - Giving Up Giving In (Joey Negro Club Mix) 8:32
05. C.C.Catch - Shake Your Head 2003 (Extended Club Mix) 5:43
06. Marque - Electronic Lady (Peter's Vocal Mix) 6:28
07. In-Grid - Tu Es Foutu (Harlem Hustlers Club Mix) 7:34
08. Jennifer Paige - Crush (David Morales Club Mix) 7:14
09. Rosenstolz - Amo Vitam (Club Mix) 6:49
10. Tom Jones And Mousse T. - Sex Bomb (Peppermint Disco Mix) 6:26
11. Spike - Respect (Club Anthem Mix) 6:22

CD 3
01. Masterboy - Feel The Heat 2000 (Extended Mix) 5:51
02. Gigi D'Agostino & Albertino - Super (Idradante) 7:14
03. Ago - Put On Your Red Shoes (Gigi D'Agostino Remix) 5:52
04. Scooter - Nessaja (Extended) 5:18
05. Jan Wayne - Because The Night (Extended Version) 6:16
06. Intermission - Piece Of My Heart (Dito Remix) 7:00
07. Sash ! - Adelante (Original 12'') 6:46
08. Essential DJ-Team - We Hate To Rock (Mirko Milano Rmx) 7:23
09. Mark Van Dale with Enrico - Water Wave (Extended Original) 7:00
10. Starsplash - Free (Peter Luts Remix) 7:39
11. Haiducci - Dragostea Din Tei (Gabry Ponte Extended Version) 6:31
12. Aventura - Obsesion (Dance Remix) 5:40

EAC LOG CD1
Exact Audio Copy V0.99 prebeta 5 from 4. May 2009

Отчёт EAC об извлечении, выполненном 22. февраля 2010, 1:53

Various / Maxi Hit-Sensation - 97-04 CD 1

Дисковод: PIONEER DVD-RW DVR-107D Adapter: 3 ID: 0

Режим чтения : Достоверность
Использование точного потока : Да
Отключение кэша аудио : Да
Использование указателей C2 : Нет

Коррекция смещения при чтении : 48
Способность читать области Lead-in и Lead-out : Нет
Заполнение пропущенных сэмплов тишиной : Да
Удаление блоков с тишиной в начале и конце : Нет
При вычислениях CRC использовались нулевые сэмплы : Да
Интерфейс : Встроенный Win32-интерфейс для Win NT/2000

Выходной формат : Внутренние WAV-операции
Формат сэмплов : 44.100 Гц; 16 бит; стерео

TOC извлечённого CD

Трек | Старт | Длительность | Начальный сектор | Конечный сектор
---------------------------------------------------------------------
1 | 0:00.00 | 5:37.54 | 0 | 25328
2 | 5:37.54 | 5:25.27 | 25329 | 49730
3 | 11:03.06 | 5:39.57 | 49731 | 75212
4 | 16:42.63 | 5:04.57 | 75213 | 98069
5 | 21:47.45 | 6:14.02 | 98070 | 126121
6 | 28:01.47 | 6:32.68 | 126122 | 155589
7 | 34:34.40 | 5:13.00 | 155590 | 179064
8 | 39:47.40 | 6:47.46 | 179065 | 209635
9 | 46:35.11 | 7:09.54 | 209636 | 241864
10 | 53:44.65 | 4:22.26 | 241865 | 261540
11 | 58:07.16 | 5:33.04 | 261541 | 286519
12 | 63:40.20 | 6:11.02 | 286520 | 314346
13 | 69:51.22 | 8:13.53 | 314347 | 351374

Характеристики диапазона извлечения и сообщения об ошибках

Выбранный диапазон

Имя файла H:\All\Music\Various - Maxi Hit-Sensation - 97-04 CD 1\Various - Maxi Hit-Sensation - 97-04 CD 1.wav

Пиковый уровень 99.0 %
Качество диапазона 100.0 %
CRC теста D1B04F2E
CRC копии D1B04F2E
Копирование... OK

Ошибок не произошло

AccurateRip: сводка

Трек 1 нет в базе данных
Трек 2 нет в базе данных
Трек 3 нет в базе данных
Трек 4 нет в базе данных
Трек 5 нет в базе данных
Трек 6 нет в базе данных
Трек 7 нет в базе данных
Трек 8 нет в базе данных
Трек 9 нет в базе данных
Трек 10 нет в базе данных
Трек 11 нет в базе данных
Трек 12 нет в базе данных
Трек 13 нет в базе данных

Ни одного трека нет в базе AccurateRip

Конец отчёта


EAC LOG CD2
Exact Audio Copy V0.99 prebeta 5 from 4. May 2009

Отчёт EAC об извлечении, выполненном 22. февраля 2010, 2:50

Various / Maxi Hit-Sensation - 97-04 CD 2

Дисковод: PIONEER DVD-RW DVR-107D Adapter: 3 ID: 0

Режим чтения : Достоверность
Использование точного потока : Да
Отключение кэша аудио : Да
Использование указателей C2 : Нет

Коррекция смещения при чтении : 48
Способность читать области Lead-in и Lead-out : Нет
Заполнение пропущенных сэмплов тишиной : Да
Удаление блоков с тишиной в начале и конце : Нет
При вычислениях CRC использовались нулевые сэмплы : Да
Интерфейс : Встроенный Win32-интерфейс для Win NT/2000

Выходной формат : Внутренние WAV-операции
Формат сэмплов : 44.100 Гц; 16 бит; стерео

TOC извлечённого CD

Трек | Старт | Длительность | Начальный сектор | Конечный сектор
---------------------------------------------------------------------
1 | 0:00.00 | 6:26.54 | 0 | 29003
2 | 6:26.54 | 6:48.11 | 29004 | 59614
3 | 13:14.65 | 7:50.56 | 59615 | 94920
4 | 21:05.46 | 8:31.70 | 94921 | 133315
5 | 29:37.41 | 5:42.45 | 133316 | 159010
6 | 35:20.11 | 6:28.32 | 159011 | 188142
7 | 41:48.43 | 7:34.04 | 188143 | 222196
8 | 49:22.47 | 7:14.17 | 222197 | 254763
9 | 56:36.64 | 6:49.19 | 254764 | 285457
10 | 63:26.08 | 6:26.31 | 285458 | 314438
11 | 69:52.39 | 6:22.36 | 314439 | 343124

Характеристики диапазона извлечения и сообщения об ошибках

Выбранный диапазон

Имя файла H:\All\Music\Various - Maxi Hit-Sensation - 97-04 CD 2\Various - Maxi Hit-Sensation - 97-04 CD 2.wav

Пиковый уровень 89.1 %
Качество диапазона 100.0 %
CRC теста 51274324
CRC копии 51274324
Копирование... OK

Ошибок не произошло

AccurateRip: сводка

Трек 1 нет в базе данных
Трек 2 нет в базе данных
Трек 3 нет в базе данных
Трек 4 нет в базе данных
Трек 5 нет в базе данных
Трек 6 нет в базе данных
Трек 7 нет в базе данных
Трек 8 нет в базе данных
Трек 9 нет в базе данных
Трек 10 нет в базе данных
Трек 11 нет в базе данных

Ни одного трека нет в базе AccurateRip

Конец отчёта


EAC LOG CD3
Exact Audio Copy V0.99 prebeta 5 from 4. May 2009

Отчёт EAC об извлечении, выполненном 22. февраля 2010, 11:08

Various / Maxi Hit-Sensation - 97-04 CD 3

Дисковод: PIONEER DVD-RW DVR-107D Adapter: 3 ID: 0

Режим чтения : Достоверность
Использование точного потока : Да
Отключение кэша аудио : Да
Использование указателей C2 : Нет

Коррекция смещения при чтении : 48
Способность читать области Lead-in и Lead-out : Нет
Заполнение пропущенных сэмплов тишиной : Да
Удаление блоков с тишиной в начале и конце : Нет
При вычислениях CRC использовались нулевые сэмплы : Да
Интерфейс : Встроенный Win32-интерфейс для Win NT/2000

Выходной формат : Внутренние WAV-операции
Формат сэмплов : 44.100 Гц; 16 бит; стерео

TOC извлечённого CD

Трек | Старт | Длительность | Начальный сектор | Конечный сектор
---------------------------------------------------------------------
1 | 0:00.00 | 5:50.56 | 0 | 26305
2 | 5:50.56 | 7:14.32 | 26306 | 58887
3 | 13:05.13 | 5:51.65 | 58888 | 85277
4 | 18:57.03 | 5:17.62 | 85278 | 109114
5 | 24:14.65 | 6:15.39 | 109115 | 137278
6 | 30:30.29 | 6:59.66 | 137279 | 168769
7 | 37:30.20 | 6:45.64 | 168770 | 199208
8 | 44:16.09 | 7:22.49 | 199209 | 232407
9 | 51:38.58 | 6:59.43 | 232408 | 263875
10 | 58:38.26 | 7:38.51 | 263876 | 298276
11 | 66:17.02 | 6:30.61 | 298277 | 327587
12 | 72:47.63 | 5:40.12 | 327588 | 353099

Характеристики диапазона извлечения и сообщения об ошибках

Выбранный диапазон

Имя файла H:\All\Music\Various - Maxi Hit-Sensation - 97-04 CD 3\Various - Maxi Hit-Sensation - 97-04 CD 3.wav

Пиковый уровень 100.0 %
Качество диапазона 99.9 %
CRC теста 4046EE4D
CRC копии 4046EE4D
Копирование... OK

Ошибок не произошло

AccurateRip: сводка

Трек 1 нет в базе данных
Трек 2 нет в базе данных
Трек 3 нет в базе данных
Трек 4 нет в базе данных
Трек 5 нет в базе данных
Трек 6 нет в базе данных
Трек 7 нет в базе данных
Трек 8 нет в базе данных
Трек 9 нет в базе данных
Трек 10 нет в базе данных
Трек 11 нет в базе данных
Трек 12 нет в базе данных

Ни одного трека нет в базе AccurateRip

Конец отчёта




All thanks for original release going to -Pol Alex-

ADVERTISING » Download fast « ADVERTISING
No comments for the news
Recent searches:
DONATE AVAXHOME:

Donate please!