Loading...
Done
Home > Music > Comedy
Posted By : worstfilms | Date : 04 Feb 2022 12:50:12 | Comments : 4 |

Allan Sherman – My Son The Box (Box Set) (6 CDs) (2005)
EAC RIP | WAV IMG+CUE, LOG | Complete Booklet (52 pages) and Full Packaging Scans @ 600 d.p.i. | 6 CDs | 2.4Gb + 171Mb
Genre: Comedy

Extraordinary career-spanning compilation contains all of comedian Allan Sherman recorded output for Warner Bros. Records plus some rarities. The only project missing is 1964’s classical romp with Arthur Fiedler and the Boston Pops, “Peter And The Commissar,” which was issued by RCA.

Absolutely worth a listen.

Highly recommended tracks: “Hello Muddah, Hello Fadduh” (on CD 3) and “You Went The Wrong Way, Old King Louie” (on CD 2).

With complete booklet (52 pages) and packaging scans at 600 d.p.i.

Allan Sherman (November 30, 2021 – November 20, 2021) began his professional career as a comedy writer for Jackie Gleason and “The Steve Allen Show,” and was the co-creator/producer of the hit game show “I’ve Got A Secret.” Sherman’s claim to fame was entertaining friends at parties singing popular songs and recognizable Broadway showtunes but with Jewish parody lyrics. In mid-1962 Sherman performed at a dinner in honor of Warner Bros.’ Jack Warner, who was producing the film version of “My Fair Lady.” Sherman sang his “My Fair Lady” parodies and within days was signed to a recording contract with Warner Bros. Records.

While the record executives at Warners loved his parodies of popular songs, they feared copyright restrictions, huge licensing expenses, and in some cases the ire of the original songwriters, would limit what he could release, so the record executives suggested he take a crack at parodying public domain folk songs. He did not disappoint. His debut album, “My Son, The Folk Singer” (released in October 1962) hit #1 on the Billboard album chart and stayed on the charts an astonishing 51 weeks. The album was still in the Top 40 when his second album, “My Son, The Celebrity” was released in December 1962. That album also hit #1 and stayed in the Top 200 for 47 weeks.

The success of his third album and hit single (“Hello Muddah, Hello Fadduh!” issued in August 1963 and peaking at #2 on the Billboard Hot 100 chart), capped an incredible winning streak for Sherman. “My Son, The Nut” was his third gold album in 10 months and “Hello Muddah” won a Grammy Award. “My Son, The Nut” (released in July 1963), which also peaked at #1.

In all, the comedian released nine albums between 1962 and 1967.

Limited Edition box set (now out of print). 149 tracks. 6 CDs. With complete booklet and packaging scans at 600 d.p.i.

All Tracks

Disc: 1
1. Jack Benny Introduction [Outtake]
2. Ballad of Harry Lewis
3. Shake Hands with Your Uncle Max
4. Sir Greenbaum's Madrigal
5. My Zelda
6. Streets of Miami
7. Sarah Jackman (With Christine Nelson)
8. Jump Down, Spin Around (Pick a Dress O' Cotton)
9. Seltzer Boy
10. Oh Boy
11. Shticks and Stones
12. My Fair Lady ("Goldeneh Moments from Broadway"), Scene I: Outside of the National Theater, 2nd Ave., New York
13. Wouldn't It Be Lovely
14. Scene II: At the C &L Delicatessen, 76th St. & Broadway
15. With a Little Bit of Lox
16. Scene III: At Grossinger’s
17. On the Streets Where We Live
18. Scene IV: At His Home
19. I Got the Customers To Face
20. Scene V: In the Candy Store
21. Get Me to the Temple on Time

Disc: 2
1. Al 'N Yetta
2. Medley: Barry Is the Baby's Name/Horowitz/Get on the Garden Freeway
3. Mexican Hat Dance
4. Bronx Bird Watcher
5. Let's All Call Up A.T. &T. And Protest to the President March
6. Harvey and Sheila
7. Won't You Come Home, Disraeli?
8. No One's Perfect
9. When I Was a Lad
10. Me
11. Shticks of One and Half a Dozen of the Other:
12. Chopped Liver [Outtake]
13. Smart Ass [Outtake]
14. You Went the Wrong Way, Old King Louie
15. Automation
16. I See Bones
17. Hungarian Goulash No. 5
18. Headaches
19. Here's to the Crabgrass

Disc: 3
1. Hello Muddah, Hello Fadduh! (A Letter from Camp)
2. One Hippopotami
3. Ratt Fink
4. You're Getting to Be a Rabbit with Me
5. Eight Foot Two, Solid Blue
6. Hail to Thee, Fat Person
7. Sue Me (Debbie Reynolds & Allan Sherman)
8. Twelve Gifts of Christmas [Unedited Single Version]
9. Skin
10. Lotsa Luck
11. Green Stamps
12. Holiday for States
13. You Need an Analyst
14. Drop-Outs March
15. I Can't Dance - Debbie Bush, Allan Sherman
16. Night and Day (With Punctuation Marks)
17. Little Butterball
18. Good Advice
19. My Son, the Vampire [Single Version]

Disc: 4
1. Hello Muddah, Hello Fadduh! (A Letter from Camp) [New 1964 Version]
2. Grow, Mrs. Goldfarb
3. Your Mother's Here to Stay
4. Pills
5. Shine on, Harvey Bloom
6. J.C. Cohen
7. Pop Hates the Beatles
8. Beautiful Teamsters
9. Kiss of Myer
10. America's a Nice Italian Name
11. Twelve Gifts of Christmas [Edited Version]
12. Bye Bye Blumberg
13. It's a Most Unusual Play
14. Laarge Daark Aardvark Song
15. That Old Back Scratcher
16. Call Me
17. Peyton Place, U.S.A.
18. Drinking Man's Diet
19. Secret Code
20. Painless Dentist Song
21. Chim Chim Cheree
22. Go to Sleep, Paul Revere!
23. Average Song
24. When I'm in the Mood for Love (You're in the Mood for Herring)
25. Overweight People [Outtake]

Disc: 5
1. Crazy Downtown [Extended Version]
2. Hello Muddah, Hello Fadduh! (A Letter from Camp) [New 1964 Version] [Alternate Version]
3. Where Do You Come from Tex [Outtake]
4. Between 18th & 19th on Chestnut Street [Outtake]
5. Christmas '65 (Draft Cards) [Outtake]
6. Intro to Allan Sherman Record [Promo Version]
7. Introduction - Short Songs: Hello Muddah /A Song Written [Nevada Style/ A Song Written By Elizabeth Taylor]
8. Taking Lessons
9. Waste of Money
10. How Van Nuys Got Its Name
11. Smog Gets in Your Eyes
12. Scotch And/Or Water
13. Sorry 'Bout That
14. Learner's Brassiere
15. Mononeucleosis
16. In Which I Finally Admit That I Won World War II Single-Handed
17. Dodgin' the Draft
18. Rebel
19. Warning to Those Who Have a Low Threshold of Sex
20. When I'm in the Mood for Love (You're in the Mood for Herring)
21. Second Hand Nose
22. Few Words About the Chinese New Year
23. Sam You Made the Pants Too Long
24. If I Could Play Piano
25. Son of Peyton Place
26. His Own Little Island [Outtake]

Disc: 6
1. Odd Ball [Single Version]
2. His Own Little Island [Single Version]
3. Makin' Coffee
4. Vending Machines
5. There Are Cups
6. That's How the Change Is Made
7. Wonderful Tree in the Forest
8. Scott Cups
9. Westchester Hadassah
10. Strange Things in My Soup
11. Turn Back the Clock
12. Signs
13. Down the Drain
14. Plan Ahead
15. Togetherness
16. Spanish Flea
17. My Aunt Minnie
18. If I Were a Tishman
19. There's No Governor Like Our New Governor
20. Dum Dum Song [Outtake]
21. Somewhere
22. Westchester Hadassah [Alternate Version]
23. Turn Back the Clock [Alternate Version]
24. Down the Drain [Alternate Version]
25. Plan Ahead [Alternate Version]
26. Togetherness [Alternate Version]
27. Spanish Flea [Alternate Version]
28. If I Were a Tishman [Alternate Version]
29. There's No Governor Like Our New Governor [Alternate Version]
30. Introduction
31. Encron Is a Brand New Fiber
32. Put Them All Together They Spell Encron
33. There Is a Fiber Called Encron
34. Encron Alive, Alive-O
35. Encron's the Name
36. Why They Call It Encron
37. Encron, Encron
38. Encron Is a Great New Fiber
39. Hello Muddah, Hello Fadduh! (A Letter from Camp) [Live]

CD 1 EAC LOG
Exact Audio Copy V0.99 prebeta 5 from 4. May 2009

EAC extraction logfile from 2. February 2010, 14:07

Allan Sherman / My Son The Box (Disc 1)

Used drive : JLMS XJ-HD166S Adapter: 3 ID: 0

Read mode : Secure
Utilize accurate stream : Yes
Defeat audio cache : Yes
Make use of C2 pointers : No

Read offset correction : 12
Overread into Lead-In and Lead-Out : No
Fill up missing offset samples with silence : Yes
Delete leading and trailing silent blocks : No
Null samples used in CRC calculations : No
Used interface : Installed external ASPI interface

Used output format : Internal WAV Routines
Sample format : 44.100 Hz; 16 Bit; Stereo


TOC of the extracted CD

Track | Start | Length | Start sector | End sector
---------------------------------------------------------
1 | 0:00.00 | 0:35.53 | 0 | 2677
2 | 0:35.53 | 3:40.16 | 2678 | 19193
3 | 4:15.69 | 2:39.74 | 19194 | 31192
4 | 6:55.68 | 3:39.06 | 31193 | 47623
5 | 10:34.74 | 3:35.21 | 47624 | 63769
6 | 14:10.20 | 5:20.59 | 63770 | 87828
7 | 19:31.04 | 2:28.11 | 87829 | 98939
8 | 21:59.15 | 2:14.71 | 98940 | 109060
9 | 24:14.11 | 3:28.74 | 109061 | 124734
10 | 27:43.10 | 4:04.23 | 124735 | 143057
11 | 31:47.33 | 5:43.10 | 143058 | 168792
12 | 37:30.43 | 3:24.40 | 168793 | 184132
13 | 40:55.08 | 1:25.20 | 184133 | 190527
14 | 42:20.28 | 1:31.62 | 190528 | 197414
15 | 43:52.15 | 2:26.52 | 197415 | 208416
16 | 46:18.67 | 0:24.16 | 208417 | 210232
17 | 46:43.08 | 2:02.12 | 210233 | 219394
18 | 48:45.20 | 2:24.46 | 219395 | 230240
19 | 51:09.66 | 1:14.16 | 230241 | 235806
20 | 52:24.07 | 1:04.51 | 235807 | 240657
21 | 53:28.58 | 1:34.45 | 240658 | 247752


Range status and errors

Selected range

Filename L:\allan sherman\cd1\asmstb1i\Allan Sherman - My Son The Box (Disc 1).wav

Peak level 99.8 %
Range quality 99.9 %
Copy CRC E06369DA
Copy OK

No errors occurred

AccurateRip summary

Track 1 accurately ripped (confidence 4) [239B8425]
Track 2 accurately ripped (confidence 4) [B3CA4C32]
Track 3 accurately ripped (confidence 4) [2954D8BC]
Track 4 accurately ripped (confidence 4) [D0ED720A]
Track 5 accurately ripped (confidence 4) [B39B92ED]
Track 6 accurately ripped (confidence 4) [AC59A818]
Track 7 accurately ripped (confidence 4) [1774D65E]
Track 8 accurately ripped (confidence 4) [2C995A96]
Track 9 accurately ripped (confidence 4) [AE4594DF]
Track 10 accurately ripped (confidence 4) [31C262BC]
Track 11 accurately ripped (confidence 4) [57126295]
Track 12 accurately ripped (confidence 4) [DAB41F97]
Track 13 accurately ripped (confidence 4) [597BB708]
Track 14 accurately ripped (confidence 4) [DAB37BF3]
Track 15 accurately ripped (confidence 4) [901A607A]
Track 16 accurately ripped (confidence 4) [4C0A496A]
Track 17 accurately ripped (confidence 4) [7F9095B1]
Track 18 accurately ripped (confidence 4) [60CD26E9]
Track 19 accurately ripped (confidence 4) [F78350F4]
Track 20 accurately ripped (confidence 4) [CF189DAD]
Track 21 accurately ripped (confidence 4) [1665EA01]

All tracks accurately ripped

End of status report

CD 2 EAC LOG
Exact Audio Copy V0.99 prebeta 5 from 4. May 2009

EAC extraction logfile from 2. February 2010, 15:56

Allan Sherman / My Son The Box (Disc 2)

Used drive : JLMS XJ-HD166S Adapter: 3 ID: 0

Read mode : Secure
Utilize accurate stream : Yes
Defeat audio cache : Yes
Make use of C2 pointers : No

Read offset correction : 12
Overread into Lead-In and Lead-Out : No
Fill up missing offset samples with silence : Yes
Delete leading and trailing silent blocks : No
Null samples used in CRC calculations : No
Used interface : Installed external ASPI interface

Used output format : Internal WAV Routines
Sample format : 44.100 Hz; 16 Bit; Stereo


TOC of the extracted CD

Track | Start | Length | Start sector | End sector
---------------------------------------------------------
1 | 0:00.00 | 3:26.17 | 0 | 15466
2 | 3:26.17 | 2:15.38 | 15467 | 25629
3 | 5:41.55 | 2:03.70 | 25630 | 34924
4 | 7:45.50 | 3:12.57 | 34925 | 49381
5 | 10:58.32 | 2:38.35 | 49382 | 61266
6 | 13:36.67 | 3:35.48 | 61267 | 77439
7 | 17:12.40 | 2:21.46 | 77440 | 88060
8 | 19:34.11 | 3:35.15 | 88061 | 104200
9 | 23:09.26 | 2:37.58 | 104201 | 116033
10 | 25:47.09 | 2:36.04 | 116034 | 127737
11 | 28:23.13 | 5:49.24 | 127738 | 153936
12 | 34:12.37 | 4:12.23 | 153937 | 172859
13 | 38:24.60 | 1:32.13 | 172860 | 179772
14 | 39:56.73 | 3:30.46 | 179773 | 195568
15 | 43:27.44 | 3:24.01 | 195569 | 210869
16 | 46:51.45 | 3:19.32 | 210870 | 225826
17 | 50:11.02 | 2:37.14 | 225827 | 237615
18 | 52:48.16 | 2:55.43 | 237616 | 250783
19 | 55:43.59 | 3:16.55 | 250784 | 265538


Range status and errors

Selected range

Filename L:\allan sherman\cd2\Allan Sherman - My Son The Box (Disc 2).wav

Peak level 99.8 %
Range quality 99.9 %
Copy CRC 031DD823
Copy OK

No errors occurred


AccurateRip summary

Track 1 accurately ripped (confidence 4) [6ADCA28E]
Track 2 accurately ripped (confidence 4) [A6AE6E0D]
Track 3 accurately ripped (confidence 4) [9B844121]
Track 4 accurately ripped (confidence 4) [10F97F84]
Track 5 accurately ripped (confidence 4) [28C104AD]
Track 6 accurately ripped (confidence 4) [29D01F37]
Track 7 accurately ripped (confidence 4) [3EA6A5B0]
Track 8 accurately ripped (confidence 4) [5A43B03B]
Track 9 accurately ripped (confidence 4) [36FA4577]
Track 10 accurately ripped (confidence 4) [985805FC]
Track 11 accurately ripped (confidence 4) [668E0D59]
Track 12 accurately ripped (confidence 4) [054EB043]
Track 13 accurately ripped (confidence 4) [C113B757]
Track 14 accurately ripped (confidence 4) [5B3C0E07]
Track 15 accurately ripped (confidence 4) [B97B7BC2]
Track 16 accurately ripped (confidence 4) [E376B188]
Track 17 accurately ripped (confidence 4) [3171AD0B]
Track 18 accurately ripped (confidence 4) [D8FA5730]
Track 19 accurately ripped (confidence 4) [2928C065]

All tracks accurately ripped

End of status report

CD 3 EAC LOG
Exact Audio Copy V0.99 prebeta 5 from 4. May 2009

EAC extraction logfile from 2. February 2010, 16:06

Allan Sherman / My Son The Box (Disc 3)

Used drive : JLMS XJ-HD166S Adapter: 3 ID: 0

Read mode : Secure
Utilize accurate stream : Yes
Defeat audio cache : Yes
Make use of C2 pointers : No

Read offset correction : 12
Overread into Lead-In and Lead-Out : No
Fill up missing offset samples with silence : Yes
Delete leading and trailing silent blocks : No
Null samples used in CRC calculations : No
Used interface : Installed external ASPI interface

Used output format : Internal WAV Routines
Sample format : 44.100 Hz; 16 Bit; Stereo


TOC of the extracted CD

Track | Start | Length | Start sector | End sector
---------------------------------------------------------
1 | 0:00.00 | 2:54.49 | 0 | 13098
2 | 2:54.49 | 3:35.06 | 13099 | 29229
3 | 6:29.55 | 2:23.74 | 29230 | 40028
4 | 8:53.54 | 1:53.25 | 40029 | 48528
5 | 10:47.04 | 2:24.43 | 48529 | 59371
6 | 13:11.47 | 1:44.19 | 59372 | 67190
7 | 14:55.66 | 2:32.74 | 67191 | 78664
8 | 17:28.65 | 3:27.35 | 78665 | 94224
9 | 20:56.25 | 2:30.21 | 94225 | 105495
10 | 23:26.46 | 2:58.63 | 105496 | 118908
11 | 26:25.34 | 2:42.44 | 118909 | 131102
12 | 29:08.03 | 1:36.10 | 131103 | 138312
13 | 30:44.13 | 3:23.58 | 138313 | 153595
14 | 34:07.71 | 2:48.20 | 153596 | 166215
15 | 36:56.16 | 2:29.49 | 166216 | 177439
16 | 39:25.65 | 3:21.53 | 177440 | 192567
17 | 42:47.43 | 1:53.01 | 192568 | 201043
18 | 44:40.44 | 8:36.00 | 201044 | 239743
19 | 53:16.44 | 2:23.66 | 239744 | 250534


Range status and errors

Selected range

Filename L:\allan sherman\cd3\Allan Sherman - My Son The Box (Disc 3).wav

Peak level 97.2 %
Range quality 100.0 %
Copy CRC C66B2B3D
Copy OK

No errors occurred


AccurateRip summary

Track 1 cannot be verified as accurate (confidence 4) [0B67CE37], AccurateRip returned [6637958B]
Track 2 cannot be verified as accurate (confidence 4) [34BF2425], AccurateRip returned [2A51D901]
Track 3 cannot be verified as accurate (confidence 4) [B03D6C20], AccurateRip returned [6055ED74]
Track 4 cannot be verified as accurate (confidence 4) [9146676E], AccurateRip returned [0F2ABFF0]
Track 5 cannot be verified as accurate (confidence 4) [E6E206CC], AccurateRip returned [1B6D62FE]
Track 6 cannot be verified as accurate (confidence 4) [1E6DDC65], AccurateRip returned [0C387C4F]
Track 7 cannot be verified as accurate (confidence 4) [3E1C7BDA], AccurateRip returned [EF8CDCA0]
Track 8 cannot be verified as accurate (confidence 4) [A6CB7BA6], AccurateRip returned [6BB63600]
Track 9 cannot be verified as accurate (confidence 4) [A571C4E1], AccurateRip returned [02238B2B]
Track 10 cannot be verified as accurate (confidence 4) [69E7AF78], AccurateRip returned [AA915E44]
Track 11 cannot be verified as accurate (confidence 4) [BC61A1F4], AccurateRip returned [7A77F262]
Track 12 cannot be verified as accurate (confidence 4) [A2A9B7DC], AccurateRip returned [E163DFDA]
Track 13 cannot be verified as accurate (confidence 4) [1218A107], AccurateRip returned [06E69E17]
Track 14 cannot be verified as accurate (confidence 4) [AB488CD2], AccurateRip returned [C0A7125C]
Track 15 cannot be verified as accurate (confidence 4) [D7D6E814], AccurateRip returned [3D0183D6]
Track 16 cannot be verified as accurate (confidence 4) [D442BB04], AccurateRip returned [482114F4]
Track 17 cannot be verified as accurate (confidence 4) [31A521DE], AccurateRip returned [D95B5EC4]
Track 18 cannot be verified as accurate (confidence 4) [0157B966], AccurateRip returned [F61BF92E]
Track 19 cannot be verified as accurate (confidence 4) [8B84E612], AccurateRip returned [7557444C]

No tracks could be verified as accurate
You may have a different pressing from the one(s) in the database

End of status report

CD 4 EAC LOG
Exact Audio Copy V0.99 prebeta 5 from 4. May 2009

EAC extraction logfile from 2. February 2010, 16:17

Allan Sherman / My Son The Box (Disc 4)

Used drive : JLMS XJ-HD166S Adapter: 3 ID: 0

Read mode : Secure
Utilize accurate stream : Yes
Defeat audio cache : Yes
Make use of C2 pointers : No

Read offset correction : 12
Overread into Lead-In and Lead-Out : No
Fill up missing offset samples with silence : Yes
Delete leading and trailing silent blocks : No
Null samples used in CRC calculations : No
Used interface : Installed external ASPI interface

Used output format : Internal WAV Routines
Sample format : 44.100 Hz; 16 Bit; Stereo


TOC of the extracted CD

Track | Start | Length | Start sector | End sector
---------------------------------------------------------
1 | 0:00.00 | 3:17.25 | 0 | 14799
2 | 3:17.25 | 3:20.68 | 14800 | 29867
3 | 6:38.18 | 2:47.05 | 29868 | 42397
4 | 9:25.23 | 1:52.70 | 42398 | 50867
5 | 11:18.18 | 2:46.01 | 50868 | 63318
6 | 14:04.19 | 4:49.57 | 63319 | 85050
7 | 18:54.01 | 3:07.22 | 85051 | 99097
8 | 22:01.23 | 2:45.11 | 99098 | 111483
9 | 24:46.34 | 2:31.39 | 111484 | 122847
10 | 27:17.73 | 5:06.69 | 122848 | 145866
11 | 32:24.67 | 3:25.46 | 145867 | 161287
12 | 35:50.38 | 3:06.13 | 161288 | 175250
13 | 38:56.51 | 2:26.30 | 175251 | 186230
14 | 41:23.06 | 2:16.12 | 186231 | 196442
15 | 43:39.18 | 2:33.46 | 196443 | 207963
16 | 46:12.64 | 2:58.00 | 207964 | 221313
17 | 49:10.64 | 3:10.72 | 221314 | 235635
18 | 52:21.61 | 2:41.59 | 235636 | 247769
19 | 55:03.45 | 2:23.37 | 247770 | 258531
20 | 57:27.07 | 2:43.08 | 258532 | 270764
21 | 60:10.15 | 3:35.10 | 270765 | 286899
22 | 63:45.25 | 2:32.45 | 286900 | 298344
23 | 66:17.70 | 1:04.34 | 298345 | 303178
24 | 67:22.29 | 2:32.31 | 303179 | 314609
25 | 69:54.60 | 2:24.01 | 314610 | 325410


Range status and errors

Selected range

Filename L:\allan sherman\cd4\Allan Sherman - My Son The Box (Disc 4).wav

Peak level 99.4 %
Range quality 99.9 %
Copy CRC 4E5C20EF
Copy OK

No errors occurred


AccurateRip summary

Track 1 accurately ripped (confidence 4) [FF3AD300]
Track 2 accurately ripped (confidence 4) [13D55C56]
Track 3 accurately ripped (confidence 4) [03BDC1CF]
Track 4 accurately ripped (confidence 4) [C2BEA035]
Track 5 accurately ripped (confidence 4) [256B5042]
Track 6 accurately ripped (confidence 4) [8A804AC3]
Track 7 accurately ripped (confidence 4) [2CAC4427]
Track 8 accurately ripped (confidence 4) [2A959FAA]
Track 9 accurately ripped (confidence 4) [D47F9B6E]
Track 10 accurately ripped (confidence 4) [DEB9DE0B]
Track 11 accurately ripped (confidence 4) [8C39F2DB]
Track 12 accurately ripped (confidence 4) [75B64CB0]
Track 13 accurately ripped (confidence 4) [7B9C8471]
Track 14 accurately ripped (confidence 4) [121FF58B]
Track 15 accurately ripped (confidence 4) [AABDF922]
Track 16 accurately ripped (confidence 4) [FEACF686]
Track 17 accurately ripped (confidence 4) [468C5486]
Track 18 accurately ripped (confidence 4) [B69B8712]
Track 19 accurately ripped (confidence 4) [6F32209A]
Track 20 accurately ripped (confidence 4) [4D6D88C6]
Track 21 accurately ripped (confidence 4) [EC9146E2]
Track 22 accurately ripped (confidence 4) [4E6D3C9B]
Track 23 accurately ripped (confidence 4) [72D2E4DB]
Track 24 accurately ripped (confidence 4) [35421A9D]
Track 25 accurately ripped (confidence 4) [9039C2BB]

All tracks accurately ripped

End of status report

CD 5 EAC LOG
Exact Audio Copy V0.99 prebeta 5 from 4. May 2009

EAC extraction logfile from 2. February 2010, 17:10

Allan Sherman / My Son The Box (Disc 5)

Used drive : JLMS XJ-HD166S Adapter: 3 ID: 0

Read mode : Secure
Utilize accurate stream : Yes
Defeat audio cache : Yes
Make use of C2 pointers : No

Read offset correction : 12
Overread into Lead-In and Lead-Out : No
Fill up missing offset samples with silence : Yes
Delete leading and trailing silent blocks : No
Null samples used in CRC calculations : No
Used interface : Installed external ASPI interface

Used output format : Internal WAV Routines
Sample format : 44.100 Hz; 16 Bit; Stereo


TOC of the extracted CD

Track | Start | Length | Start sector | End sector
---------------------------------------------------------
1 | 0:00.00 | 2:57.17 | 0 | 13291
2 | 2:57.17 | 2:34.39 | 13292 | 24880
3 | 5:31.56 | 3:04.57 | 24881 | 38737
4 | 8:36.38 | 2:27.16 | 38738 | 49778
5 | 11:03.54 | 1:53.69 | 49779 | 58322
6 | 12:57.48 | 0:18.30 | 58323 | 59702
7 | 13:16.03 | 1:52.45 | 59703 | 68147
8 | 15:08.48 | 2:53.30 | 68148 | 81152
9 | 18:02.03 | 2:16.52 | 81153 | 91404
10 | 20:18.55 | 1:05.43 | 91405 | 96322
11 | 21:24.23 | 1:23.03 | 96323 | 102550
12 | 22:47.26 | 0:31.25 | 102551 | 104900
13 | 23:18.51 | 2:27.23 | 104901 | 115948
14 | 25:45.74 | 1:37.72 | 115949 | 123295
15 | 27:23.71 | 1:56.17 | 123296 | 132012
16 | 29:20.13 | 0:57.58 | 132013 | 136345
17 | 30:17.71 | 2:15.44 | 136346 | 146514
18 | 32:33.40 | 3:42.18 | 146515 | 163182
19 | 36:15.58 | 1:11.47 | 163183 | 168554
20 | 37:27.30 | 2:15.20 | 168555 | 178699
21 | 39:42.50 | 2:13.26 | 178700 | 188700
22 | 41:56.01 | 1:16.01 | 188701 | 194401
23 | 43:12.02 | 2:45.57 | 194402 | 206833
24 | 45:57.59 | 2:10.48 | 206834 | 216631
25 | 48:08.32 | 6:15.71 | 216632 | 244827
26 | 54:24.28 | 1:55.23 | 244828 | 253475


Range status and errors

Selected range

Filename L:\allan sherman\cd5\Allan Sherman - My Son The Box (Disc 5).wav

Peak level 99.8 %
Range quality 100.0 %
Copy CRC 2B1DDD71
Copy OK

No errors occurred


AccurateRip summary

Track 1 accurately ripped (confidence 4) [1023856F]
Track 2 accurately ripped (confidence 4) [D43AE52D]
Track 3 accurately ripped (confidence 4) [71BE7481]
Track 4 accurately ripped (confidence 4) [64E00A01]
Track 5 accurately ripped (confidence 4) [EC8F222B]
Track 6 accurately ripped (confidence 4) [71D190A1]
Track 7 accurately ripped (confidence 4) [6F34B29F]
Track 8 accurately ripped (confidence 4) [DA28B919]
Track 9 accurately ripped (confidence 4) [BD51A66D]
Track 10 accurately ripped (confidence 4) [F3D959CC]
Track 11 accurately ripped (confidence 4) [7C8D093A]
Track 12 accurately ripped (confidence 4) [4F5E6139]
Track 13 accurately ripped (confidence 4) [61D77592]
Track 14 accurately ripped (confidence 4) [015BDACC]
Track 15 accurately ripped (confidence 4) [4177D7BA]
Track 16 accurately ripped (confidence 4) [35A18E65]
Track 17 accurately ripped (confidence 4) [CE835B55]
Track 18 accurately ripped (confidence 4) [7850AC1E]
Track 19 accurately ripped (confidence 4) [F520335D]
Track 20 accurately ripped (confidence 4) [C2145064]
Track 21 accurately ripped (confidence 4) [7B26EFFC]
Track 22 accurately ripped (confidence 4) [862F00B8]
Track 23 accurately ripped (confidence 4) [72CE36DA]
Track 24 accurately ripped (confidence 4) [ECBDD83C]
Track 25 accurately ripped (confidence 4) [E2E77355]
Track 26 accurately ripped (confidence 4) [1466E034]

All tracks accurately ripped

End of status report

CD 6 EAC LOG
Exact Audio Copy V0.99 prebeta 5 from 4. May 2009

EAC extraction logfile from 2. February 2010, 17:28

Allan Sherman / My Son The Box (Disc 6)

Used drive : JLMS XJ-HD166S Adapter: 3 ID: 0

Read mode : Secure
Utilize accurate stream : Yes
Defeat audio cache : Yes
Make use of C2 pointers : No

Read offset correction : 12
Overread into Lead-In and Lead-Out : No
Fill up missing offset samples with silence : Yes
Delete leading and trailing silent blocks : No
Null samples used in CRC calculations : No
Used interface : Installed external ASPI interface

Used output format : Internal WAV Routines
Sample format : 44.100 Hz; 16 Bit; Stereo


TOC of the extracted CD

Track | Start | Length | Start sector | End sector
---------------------------------------------------------
1 | 0:00.00 | 1:47.05 | 0 | 8029
2 | 1:47.05 | 2:00.48 | 8030 | 17077
3 | 3:47.53 | 3:10.56 | 17078 | 31383
4 | 6:58.34 | 2:58.61 | 31384 | 44794
5 | 9:57.20 | 2:07.51 | 44795 | 54370
6 | 12:04.71 | 2:19.29 | 54371 | 64824
7 | 14:24.25 | 3:32.16 | 64825 | 80740
8 | 17:56.41 | 2:29.07 | 80741 | 91922
9 | 20:25.48 | 2:01.60 | 91923 | 101057
10 | 22:27.33 | 2:19.71 | 101058 | 111553
11 | 24:47.29 | 2:35.29 | 111554 | 123207
12 | 27:22.58 | 2:21.32 | 123208 | 133814
13 | 29:44.15 | 3:21.66 | 133815 | 148955
14 | 33:06.06 | 2:06.26 | 148956 | 158431
15 | 35:12.32 | 1:40.65 | 158432 | 165996
16 | 36:53.22 | 1:37.49 | 165997 | 173320
17 | 38:30.71 | 2:14.00 | 173321 | 183370
18 | 40:44.71 | 2:47.27 | 183371 | 195922
19 | 43:32.23 | 2:09.51 | 195923 | 205648
20 | 45:41.74 | 2:26.55 | 205649 | 216653
21 | 48:08.54 | 4:28.19 | 216654 | 236772
22 | 52:36.73 | 2:00.42 | 236773 | 245814
23 | 54:37.40 | 1:18.14 | 245815 | 251678
24 | 55:55.54 | 0:57.47 | 251679 | 256000
25 | 56:53.26 | 1:21.62 | 256001 | 262137
26 | 58:15.13 | 0:42.71 | 262138 | 265358
27 | 58:58.09 | 1:36.34 | 265359 | 272592
28 | 60:34.43 | 2:49.61 | 272593 | 285328
29 | 63:24.29 | 0:47.55 | 285329 | 288908
30 | 64:12.09 | 0:32.36 | 288909 | 291344
31 | 64:44.45 | 0:37.18 | 291345 | 294137
32 | 65:21.63 | 0:36.29 | 294138 | 296866
33 | 65:58.17 | 0:37.16 | 296867 | 299657
34 | 66:35.33 | 0:37.29 | 299658 | 302461
35 | 67:12.62 | 0:37.35 | 302462 | 305271
36 | 67:50.22 | 0:37.43 | 305272 | 308089
37 | 68:27.65 | 0:36.65 | 308090 | 310854
38 | 69:04.55 | 0:39.55 | 310855 | 313834
39 | 69:44.35 | 2:52.00 | 313835 | 326734


Range status and errors

Selected range

Filename L:\allan sherman\cd6\Allan Sherman - My Son The Box (Disc 6).wav

Peak level 95.5 %
Range quality 100.0 %
Copy CRC 801B029E
Copy OK

No errors occurred


AccurateRip summary

Track 1 accurately ripped (confidence 4) [4E4C7C8B]
Track 2 accurately ripped (confidence 4) [3A042733]
Track 3 accurately ripped (confidence 4) [EC20AD9F]
Track 4 accurately ripped (confidence 4) [085682F5]
Track 5 accurately ripped (confidence 4) [4B5748D8]
Track 6 accurately ripped (confidence 4) [CB43E3AA]
Track 7 accurately ripped (confidence 4) [0FF6DA06]
Track 8 accurately ripped (confidence 4) [B3839C7F]
Track 9 accurately ripped (confidence 4) [7C72EFA9]
Track 10 accurately ripped (confidence 4) [8030A736]
Track 11 accurately ripped (confidence 4) [45D2B2D3]
Track 12 accurately ripped (confidence 4) [B6A4CEB8]
Track 13 accurately ripped (confidence 4) [D24E84C0]
Track 14 accurately ripped (confidence 4) [AFF2FCDF]
Track 15 accurately ripped (confidence 4) [8F93EA61]
Track 16 accurately ripped (confidence 4) [D74BA571]
Track 17 accurately ripped (confidence 4) [40B15DCC]
Track 18 accurately ripped (confidence 4) [CCFA052A]
Track 19 accurately ripped (confidence 4) [E4C25607]
Track 20 accurately ripped (confidence 4) [B7B55E41]
Track 21 accurately ripped (confidence 4) [272490B9]
Track 22 accurately ripped (confidence 4) [B7AD235E]
Track 23 accurately ripped (confidence 4) [65E34A8A]
Track 24 accurately ripped (confidence 4) [84BF8B3F]
Track 25 accurately ripped (confidence 4) [5891F8E3]
Track 26 accurately ripped (confidence 4) [672FF7E9]
Track 27 accurately ripped (confidence 4) [4B89ADD8]
Track 28 accurately ripped (confidence 4) [876FA5F9]
Track 29 accurately ripped (confidence 4) [2486C912]
Track 30 accurately ripped (confidence 4) [6BF10286]
Track 31 accurately ripped (confidence 4) [B9874128]
Track 32 accurately ripped (confidence 4) [22766E8E]
Track 33 accurately ripped (confidence 4) [F7CDBC5C]
Track 34 accurately ripped (confidence 4) [E16A1790]
Track 35 accurately ripped (confidence 4) [F88392FB]
Track 36 accurately ripped (confidence 4) [7C41DAA0]
Track 37 accurately ripped (confidence 4) [8C98D1FF]
Track 38 accurately ripped (confidence 4) [3E2B97F3]
Track 39 accurately ripped (confidence 4) [A58743D6]

All tracks accurately ripped

End of status report


Download album (rapidshare):

CD 1:
Part 1
Part 2

CD 2:
Part 1
Part 2

CD 3:
Part 1
Part 2

CD 4:
Part 1
Part 2
Part 3

CD 5:
Part 1
Part 2

CD 6:
Part 1
Part 2
Part 3

All Artwork

No Password
ADVERTISING » Download fast « ADVERTISING
Posted By: SmellyCat Date: 04 Feb 2022 15:40:57
WOW WEEEEEE WOW WOW!!!!

I've been hoping for something like this for Years!

Brings back childhood memories. When I got older me and friends would get drunk and howl with laughter listening to this stuff.

Oy, My Zelda...My Zelda...My Zelda she took da' money and ran wit de tailor'

That Tailor he really hurt my pride, he made my lapels an inch too wide

My Zelda...My Zelda...My Zelda she took da' money and ran wit de tailor'

My Zelda she found her big romance, when I broke the zipper in my pants


PRICELESS!!! THANKYOUUUUUUUU!!!
Posted By: mook45 Date: 04 Feb 2022 21:29:21
This looks great, one of the lesser known of the oh-so-desirable Rhino box sets. Thanks
Posted By: 4-F Date: 05 Feb 2022 04:24:04
Thanks! I can't believe someone posted a lossless copy of this. lol
Posted By: Buzzlitejear Date: 09 Feb 2022 04:11:24
worstfilms,
Thank you! This is a BestAudio!!!
This guy was the earlier genius that Weird Al Yankovic carries the tradition on for.
If you love parody, listen to Allan Sherman - a true pioneer.

Thanks again for the Great Share and Fantastic Quality!!!!

Buzz
Recent searches: