Loading...
Done
Home > Music
Lee Morgan - The Cooker (1957) {2006 Rudy Van Gelder Remaster}
Posted By : ruskaval | Date : 01 Jan 2022 04:50:59 | Comments : 4

Lee Morgan - The Cooker (1957) {2006 Rudy Van Gelder Remaster}
EAC rip (secure mode) | FLAC+CUE+LOG -> 336 Mb | MP3 @320 -> 105 Mb
Full Artwork @ 300 dpi (png) -> 60 Mb
© 2006 EMI / Blue Note | 0946 3 62643 2 5 | 24-bit remaster
Jazz / Hard Bop / Bop / Trumpet



Lee Morgan was a tender 19-year-old when he recorded 1957's THE COOKER for Blue Note. While Morgan wouldn't truly hit his stride until a few years after this release, his duties as leader here are mighty impressive, nonetheless. A stellar personnel line-up that includes drummer Philly Joe Jones, bassist Paul Chambers, pianist Bobby Timmons, and baritone saxophonist Pepper Adams keeps the musicianship at a remarkably high caliber, and the ensemble's performance on standards like "A Night in Tunisia" and "Just One of Those Things" sizzle, as do their takes on Morgan's two originals. THE COOKER isn't a landmark release, but it is a very solid hard-bop outing that showcases dynamic group chemistry and the formative first steps of Morgan's dazzling trumpet chops.

Personnel: Lee Morgan (trumpet); Pepper Adams (baritone saxophone); Bobby Timmons (piano); Paul Chambers (bass instrument); Philly Joe Jones (drum).

tracklist:
1. A Night in Tunisia
2. Heavy Dipper
3. Just One Of Those Things
4. Lover Man
5. New-Ma
6. Just One Of Those Things (alternate take)



EAC log
Exact Audio Copy V0.99 prebeta 5 from 4. May 2009

EAC extraction logfile from 27. December 2009, 12:34

Lee Morgan / The Cooker

Used drive : TSSTcorpCD/DVDW TS-H552L Adapter: 3 ID: 0

Read mode : Secure
Utilize accurate stream : Yes
Defeat audio cache : Yes
Make use of C2 pointers : No

Read offset correction : 6
Overread into Lead-In and Lead-Out : No
Fill up missing offset samples with silence : Yes
Delete leading and trailing silent blocks : No
Null samples used in CRC calculations : Yes
Used interface : Native Win32 interface for Win NT & 2000
Gap handling : Appended to previous track

Used output format : User Defined Encoder
Selected bitrate : 1024 kBit/s
Quality : High
Add ID3 tag : No
Command line compressor : C:\Program Files\FLAC\flac.exe
Additional command line options : -6 -V -T "ARTIST=%a" -T "TITLE=%t" -T "ALBUM=%g" -T "DATE=%y" -T "TRACKNUMBER=%n" -T "GENRE=%m" -T "COMMENT=EAC FLAC -6" %s


TOC of the extracted CD

Track | Start | Length | Start sector | End sector
---------------------------------------------------------
1 | 0:00.00 | 9:24.06 | 0 | 42305
2 | 9:24.06 | 7:05.15 | 42306 | 74195
3 | 16:29.21 | 7:18.05 | 74196 | 107050
4 | 23:47.26 | 6:50.08 | 107051 | 137808
5 | 30:37.34 | 8:14.72 | 137809 | 174930
6 | 38:52.31 | 7:50.32 | 174931 | 210212


Track 1

Filename C:\Lee Morgan - The Cooker (1957) {2006 Rudy Van Gelder Remaster}\01 - A Night In Tunisia.wav

Pre-gap length 0:00:02.00

Peak level 97.9 %
Track quality 100.0 %
Test CRC E4E300DC
Copy CRC E4E300DC
Accurately ripped (confidence 7) [8DDA89C9]
Copy OK

Track 2

Filename C:\Lee Morgan - The Cooker (1957) {2006 Rudy Van Gelder Remaster}\02 - Heavy Dipper.wav

Pre-gap length 0:00:03.32

Peak level 97.9 %
Track quality 100.0 %
Test CRC 818362D7
Copy CRC 818362D7
Accurately ripped (confidence 7) [40A17374]
Copy OK

Track 3

Filename C:\Lee Morgan - The Cooker (1957) {2006 Rudy Van Gelder Remaster}\03 - Just One Of Those Things.wav

Pre-gap length 0:00:02.36

Peak level 97.9 %
Track quality 100.0 %
Test CRC 3C84B9AF
Copy CRC 3C84B9AF
Accurately ripped (confidence 7) [A473FE86]
Copy OK

Track 4

Filename C:\Lee Morgan - The Cooker (1957) {2006 Rudy Van Gelder Remaster}\04 - Lover Man.wav

Pre-gap length 0:00:02.60

Peak level 97.9 %
Track quality 99.9 %
Test CRC 6C979720
Copy CRC 6C979720
Accurately ripped (confidence 7) [0EF4BF8F]
Copy OK

Track 5

Filename C:\Lee Morgan - The Cooker (1957) {2006 Rudy Van Gelder Remaster}\05 - New-Ma.wav

Pre-gap length 0:00:02.53

Peak level 97.9 %
Track quality 100.0 %
Test CRC 8C2F6AC0
Copy CRC 8C2F6AC0
Accurately ripped (confidence 7) [C27CD817]
Copy OK

Track 6

Filename C:\Lee Morgan - The Cooker (1957) {2006 Rudy Van Gelder Remaster}\06 - Just One Of Those Things (Alternate Take).wav

Pre-gap length 0:00:03.31

Peak level 97.9 %
Track quality 100.0 %
Test CRC 340A367C
Copy CRC 340A367C
Accurately ripped (confidence 6) [86DE7DCF]
Copy OK


All tracks accurately ripped

No errors occurred

End of status report

Please don't post the links and passes in your comments...

Linkz
ADVERTISING » Download fast « ADVERTISING
Posted By: Turun Date: 01 Jan 2022 08:20:52
Dear ruskaval, you are really my HDD killer :o)
Thanx you very much!
Posted By: janwal46 Date: 01 Jan 2022 10:23:44
Thanks again for another "RVG" and my best wishes for 2010 !!
Posted By: Chriss71 Date: 01 Jan 2022 10:29:47
Dear ruskaval!

First let me say: I wish you a happy new Year.
YOU ARE REALLY OUTSTANDING.

Your Posts are really great. Please keep going on.
I really appreciate your posts.

Bye
Posted By: r5user Date: 01 Jan 2022 20:26:59
Your posts is the bestest. My best wishes!
DONATE AVAXHOME:

Donate please!