Loading...
Done
Home > Music
Lee Morgan - Expoobident (1960) {2000 Koch Jazz Remaster}
Posted By : ruskaval | Date : 03 Feb 2022 03:54:54 | Comments : 1

Lee Morgan - Expoobident (1960) {2000 Koch Jazz Remaster}
EAC rip (secure mode) | FLAC+CUE+LOG -> 338 Mb | MP3 @320 -> 122 Mb
Full Artwork (web) -> 4 Mb
© 2000 Rhino / Koch Jazz / Vee-Jay | KOC CD-8556
Jazz / Hard Bop / Post Bop / Trumpet



Although not one of his better known albums, Lee Morgan's EXPOOBIDENT is a strong outing in the still-early stages of the trumpeter's career. The oddly titled session, originally recorded for the Vee Jay label, is an excellent showcase for Morgan's developing style as one of the premier hard bop trumpeters. Also on the date are other heavy-duty boppers like the big-toned tenor man Clifford Jordan, bassist Art Davis, the great Art Blakey on drums, and the underrated pianist Eddie Higgins. The young Morgan is the central figure, however, and smartly displays his wares in swinging fashion.

Morgan sports a tighter focus to his approach on this date, reigning in his usual over-the-top blowing reserved for Blakey's Jazz Messenger sessions. His soloing is melodic, crisp, and neatly controlled for the most part. This makes for some shining passages that clearly illustrate the trumpeter's major contribution to the hard bop genre. From his driving, speech-like punches and drawls on swingers like bluesy "Triple Track" to his Miles Davis-ish muted whisper on the classic "Just In Time," Morgan presents a wide range of expression like only he could. Also included in this edition are four bonus alternate takes that are of equal value.

Personnel: Lee Morgan (trumpet); Clifford Jordan (tenor saxophone); Eddie Higgins (piano); Art Davis (bass); Art Blakey (drums).

tracklist:
01. Expoobident
02. Easy Living
03. Triple Track
04. Fire
05. Just In Time
06. The Hearing
07. Lost And Found
08. Expoobident (Take 3)
09. Triple Track (Take 16)
10. Fire (Take 8)
11. Just In Time (Take 11)


EAC log
Exact Audio Copy V0.99 prebeta 5 from 4. May 2009

EAC extraction logfile from 2. February 2010, 18:03

Lee Morgan / Expoobident

Used drive : TSSTcorpCD/DVDW TS-H552L Adapter: 3 ID: 0

Read mode : Secure
Utilize accurate stream : Yes
Defeat audio cache : Yes
Make use of C2 pointers : No

Read offset correction : 6
Overread into Lead-In and Lead-Out : No
Fill up missing offset samples with silence : Yes
Delete leading and trailing silent blocks : No
Null samples used in CRC calculations : Yes
Used interface : Native Win32 interface for Win NT & 2000
Gap handling : Appended to previous track

Used output format : User Defined Encoder
Selected bitrate : 1024 kBit/s
Quality : High
Add ID3 tag : No
Command line compressor : C:\Program Files\FLAC\flac.exe
Additional command line options : -6 -V -T "ARTIST=%a" -T "TITLE=%t" -T "ALBUM=%g" -T "DATE=%y" -T "TRACKNUMBER=%n" -T "GENRE=%m" -T "COMMENT=EAC FLAC -6" %s


TOC of the extracted CD

Track | Start | Length | Start sector | End sector
---------------------------------------------------------
1 | 0:00.32 | 5:01.65 | 32 | 22671
2 | 5:02.22 | 5:58.00 | 22672 | 49521
3 | 11:00.22 | 5:00.43 | 49522 | 72064
4 | 16:00.65 | 4:51.05 | 72065 | 93894
5 | 20:51.70 | 3:32.35 | 93895 | 109829
6 | 24:24.30 | 3:36.27 | 109830 | 126056
7 | 28:00.57 | 3:35.33 | 126057 | 142214
8 | 31:36.15 | 5:06.50 | 142215 | 165214
9 | 36:42.65 | 5:12.22 | 165215 | 188636
10 | 41:55.12 | 5:07.45 | 188637 | 211706
11 | 47:02.57 | 5:46.60 | 211707 | 237716


Track 1

Filename C:\Lee Morgan - Expoobident (1960) {2000 Koch Jazz Remaster}\01 - Expoobident.wav

Pre-gap length 0:00:02.32

Peak level 89.6 %
Track quality 100.0 %
Test CRC 7F968730
Copy CRC 7F968730
Cannot be verified as accurate (confidence 1) [42BC56CD], AccurateRip returned [A6E257B1]
Copy OK

Track 2

Filename C:\Lee Morgan - Expoobident (1960) {2000 Koch Jazz Remaster}\02 - Easy Living.wav

Pre-gap length 0:00:03.15

Peak level 79.9 %
Track quality 100.0 %
Test CRC E217B43F
Copy CRC E217B43F
Cannot be verified as accurate (confidence 1) [3E5419B5], AccurateRip returned [6235C544]
Copy OK

Track 3

Filename C:\Lee Morgan - Expoobident (1960) {2000 Koch Jazz Remaster}\03 - Triple Track.wav

Pre-gap length 0:00:02.10

Peak level 92.3 %
Track quality 100.0 %
Test CRC 0B636F96
Copy CRC 0B636F96
Cannot be verified as accurate (confidence 1) [5F2E54B4], AccurateRip returned [4A5493E8]
Copy OK

Track 4

Filename C:\Lee Morgan - Expoobident (1960) {2000 Koch Jazz Remaster}\04 - Fire.wav

Pre-gap length 0:00:02.20

Peak level 95.0 %
Track quality 100.0 %
Test CRC D73233E7
Copy CRC D73233E7
Cannot be verified as accurate (confidence 1) [39804BCE], AccurateRip returned [59AB9094]
Copy OK

Track 5

Filename C:\Lee Morgan - Expoobident (1960) {2000 Koch Jazz Remaster}\05 - Just In Time.wav

Pre-gap length 0:00:01.71

Peak level 89.2 %
Track quality 100.0 %
Test CRC CE249C43
Copy CRC CE249C43
Cannot be verified as accurate (confidence 1) [39FA5D63], AccurateRip returned [008F187E]
Copy OK

Track 6

Filename C:\Lee Morgan - Expoobident (1960) {2000 Koch Jazz Remaster}\06 - The Hearing.wav

Pre-gap length 0:00:02.05

Peak level 97.7 %
Track quality 100.0 %
Test CRC 751EA4F1
Copy CRC 751EA4F1
Cannot be verified as accurate (confidence 1) [37023F19], AccurateRip returned [E1012408]
Copy OK

Track 7

Filename C:\Lee Morgan - Expoobident (1960) {2000 Koch Jazz Remaster}\07 - Lost & Found.wav

Pre-gap length 0:00:02.37

Peak level 92.3 %
Track quality 100.0 %
Test CRC 7479AD8D
Copy CRC 7479AD8D
Cannot be verified as accurate (confidence 1) [ACA9251F], AccurateRip returned [C807185F]
Copy OK

Track 8

Filename C:\Lee Morgan - Expoobident (1960) {2000 Koch Jazz Remaster}\08 - Expoobident (take 3).wav

Pre-gap length 0:00:03.15

Peak level 85.5 %
Track quality 100.0 %
Test CRC 54AC7DBF
Copy CRC 54AC7DBF
Cannot be verified as accurate (confidence 1) [A65F381F], AccurateRip returned [EFF21D0D]
Copy OK

Track 9

Filename C:\Lee Morgan - Expoobident (1960) {2000 Koch Jazz Remaster}\09 - Triple Track (take 16).wav

Pre-gap length 0:00:01.73

Peak level 93.0 %
Track quality 100.0 %
Test CRC 60161774
Copy CRC 60161774
Cannot be verified as accurate (confidence 1) [3CEB54DC], AccurateRip returned [3EF38DEE]
Copy OK

Track 10

Filename C:\Lee Morgan - Expoobident (1960) {2000 Koch Jazz Remaster}\10 - Fire (take 8).wav

Pre-gap length 0:00:02.20

Peak level 73.5 %
Track quality 100.0 %
Test CRC 03D76BCF
Copy CRC 03D76BCF
Cannot be verified as accurate (confidence 1) [DDBA4A88], AccurateRip returned [B4F695F7]
Copy OK

Track 11

Filename C:\Lee Morgan - Expoobident (1960) {2000 Koch Jazz Remaster}\11 - Just In Time (take 11).wav

Pre-gap length 0:00:01.22

Peak level 80.7 %
Track quality 100.0 %
Test CRC 0872B3CD
Copy CRC 0872B3CD
Cannot be verified as accurate (confidence 1) [31F682BA], AccurateRip returned [4BA0C1F2]
Copy OK


No tracks could be verified as accurate
You may have a different pressing from the one(s) in the database

No errors occurred

End of status report

Please don't post the links and passes in your comments...

Linkz
ADVERTISING » Download fast « ADVERTISING
Posted By: infimum Date: 03 Feb 2022 18:13:21
Thanks always, ruskaval.
Recent searches:
DONATE AVAXHOME:

Donate please!