Loading...
Done
Home > Music
Lee Morgan - Candy (1958) {2007 Rudy Van Gelder Remaster}
Posted By : ruskaval | Date : 02 Jan 2022 04:12:22 | Comments : 5

Lee Morgan - Candy (1958) {2007 Rudy Van Gelder Remaster}
EAC rip (secure mode) | FLAC+CUE+LOG -> 280 Mb | MP3 @320 -> 95 Mb
Full Artwork @ 300 dpi (png) -> 59 Mb
© 2007 EMI / Blue Note | 0946 3 93176 2 2 | 24-bit remaster
Jazz / Hard Bop / Bop / Trumpet



A seminal figure in the golden age of Blue Note records, Lee Morgan was the definition of the '50s post-bop trumpet style and sound. His album CANDY from 1958 is a quintissential document of the easy swing and tight ensemble work that was prominant before the onset of hard-bop and free-jazz of the '60s. Morgan's nimble lines and smooth sound contrast perfectly with drummer Art Taylor's jumping solo spots in the opening title track. The bluesy ballad "Since I Fell For You" is just smokey and subtle enough to melt even the coldest heart. Jimmy Heath's "C.T.A." and Irving Berlin's "Who Do You Love, I Hope" are nice-and-quick workouts that find pianist Sonny Clarke and bassist Doug Watkins in perfect sync with Taylor in support of their agil leader. For Sinatra fans, Morgan's reading of the classic "All The Way" is a beautiful interpretation that would make Old Blue Eyes smile. Overall, this is a golden snapshot of one of the most stylish trumpeters in jazz.

Personnel: Lee Morgan (trumpet); Sonny Clark (piano); Doug Watkins (bass); Art Taylor (drums).

tracklist:
1. Candy
2. Since I Fell For You
3. C.T.A.
4. All the Way
5. Who Do You Love, I Hope
6. Personality
7. All At Once You Love Her



EAC log
Exact Audio Copy V0.99 prebeta 5 from 4. May 2009

EAC extraction logfile from 29. December 2009, 12:52

Lee Morgan / Candy

Used drive : TSSTcorpCD/DVDW TS-H552L Adapter: 3 ID: 0

Read mode : Secure
Utilize accurate stream : Yes
Defeat audio cache : Yes
Make use of C2 pointers : No

Read offset correction : 6
Overread into Lead-In and Lead-Out : No
Fill up missing offset samples with silence : Yes
Delete leading and trailing silent blocks : No
Null samples used in CRC calculations : Yes
Used interface : Native Win32 interface for Win NT & 2000
Gap handling : Appended to previous track

Used output format : User Defined Encoder
Selected bitrate : 1024 kBit/s
Quality : High
Add ID3 tag : No
Command line compressor : C:\Program Files\FLAC\flac.exe
Additional command line options : -6 -V -T "ARTIST=%a" -T "TITLE=%t" -T "ALBUM=%g" -T "DATE=%y" -T "TRACKNUMBER=%n" -T "GENRE=%m" -T "COMMENT=EAC FLAC -6" %s


TOC of the extracted CD

Track | Start | Length | Start sector | End sector
---------------------------------------------------------
1 | 0:00.00 | 7:06.74 | 0 | 32023
2 | 7:06.74 | 5:39.25 | 32024 | 57473
3 | 12:46.24 | 5:06.38 | 57474 | 80461
4 | 17:52.62 | 7:27.13 | 80462 | 113999
5 | 25:20.00 | 5:01.48 | 114000 | 136622
6 | 30:21.48 | 6:16.04 | 136623 | 164826
7 | 36:37.52 | 5:26.61 | 164827 | 189337


Track 1

Filename C:\Lee Morgan - Candy (1958) {2007 Rudy Van Gelder Remaster}\01 - Candy.wav

Pre-gap length 0:00:02.00

Peak level 97.9 %
Track quality 100.0 %
Test CRC 1CEF4242
Copy CRC 1CEF4242
Cannot be verified as accurate (confidence 9) [CF906C5A], AccurateRip returned [D1846B1C]
Copy OK

Track 2

Filename C:\Lee Morgan - Candy (1958) {2007 Rudy Van Gelder Remaster}\02 - Since I Fell For You.wav

Pre-gap length 0:00:03.50

Peak level 97.9 %
Track quality 100.0 %
Test CRC 6245A384
Copy CRC 6245A384
Cannot be verified as accurate (confidence 9) [8F186F1A], AccurateRip returned [F70E9E68]
Copy OK

Track 3

Filename C:\Lee Morgan - Candy (1958) {2007 Rudy Van Gelder Remaster}\03 - C. T. A..wav

Pre-gap length 0:00:03.57

Peak level 98.0 %
Track quality 99.9 %
Test CRC F2479A08
Copy CRC F2479A08
Cannot be verified as accurate (confidence 9) [ECBFCF8B], AccurateRip returned [043157F1]
Copy OK

Track 4

Filename C:\Lee Morgan - Candy (1958) {2007 Rudy Van Gelder Remaster}\04 - All The Way.wav

Pre-gap length 0:00:01.45

Peak level 97.9 %
Track quality 100.0 %
Test CRC 54081E34
Copy CRC 54081E34
Cannot be verified as accurate (confidence 9) [58F26374], AccurateRip returned [0BD3C568]
Copy OK

Track 5

Filename C:\Lee Morgan - Candy (1958) {2007 Rudy Van Gelder Remaster}\05 - Who Do You Love, I Hope.wav

Pre-gap length 0:00:03.06

Peak level 97.9 %
Track quality 100.0 %
Test CRC 8EF4B1CE
Copy CRC 8EF4B1CE
Cannot be verified as accurate (confidence 9) [D50C2CD0], AccurateRip returned [81F394BA]
Copy OK

Track 6

Filename C:\Lee Morgan - Candy (1958) {2007 Rudy Van Gelder Remaster}\06 - Personality.wav

Pre-gap length 0:00:02.65

Peak level 97.9 %
Track quality 100.0 %
Test CRC 5BD0AE9A
Copy CRC 5BD0AE9A
Cannot be verified as accurate (confidence 9) [0AC5F79F], AccurateRip returned [0D7D81D9]
Copy OK

Track 7

Filename C:\Lee Morgan - Candy (1958) {2007 Rudy Van Gelder Remaster}\07 - All At Once You Love Her.wav

Pre-gap length 0:00:03.43

Peak level 98.0 %
Track quality 100.0 %
Test CRC 41E23578
Copy CRC 41E23578
Cannot be verified as accurate (confidence 9) [15805EA9], AccurateRip returned [AD47612B]
Copy OK


No tracks could be verified as accurate
You may have a different pressing from the one(s) in the database

No errors occurred

End of status report

Please don't post the links and passes in your comments...

Linkz
ADVERTISING » Download fast « ADVERTISING
Posted By: pesaulius Date: 02 Jan 2022 05:16:24
THANK YOU VERY MUCH
Posted By: pguppgdn Date: 02 Jan 2022 07:57:27
>>>>
another thanx for another LM masterpiece!
<<<<
Posted By: Turun Date: 02 Jan 2022 09:06:44
Thank you very much ruskaval !!!
Posted By: mfrwiz Date: 02 Jan 2022 12:23:51
Grabbed!!!....uhm....a gem I think....Thanks Ruskaval ::))
Posted By: crook3d Date: 02 Jan 2022 23:05:12
Very nice. Thank you.
DONATE AVAXHOME:

Donate please!