Loading...
Done
Home > Music
Posted By : aeolos | Date : 26 Nov 2021 15:00:27 | Comments : 3 |

Kenny Loggins - Keep The Fire
Label: Wounded Bird Records | EAC img | FLAC+CUE+LOG | 320MB | HQ MP3 CBR | 320kbps-114MB | covers included
Genre: Pop-Rock, Soft-Rock

Kenny Loggins is widely known as one half of the duo Loggins & Messina. When he went solo in 1977, he issued a host of top selling albums. "Keep The Fire" was originally released in 1979 & reached #16 on the Billboard charts. Keep The Fire features two live bonus tracks. Enjoy!


Product Details

# Audio CD (August 12, 2021)
# Original Release Date: 1979
# Number of Discs: 1
# Label: Wounded Bird Records
# Format: Bonus Tracks Edition

Track Listing

1. Love Has Come of Age
2. Mr. Night
3. This Is It
4. Junkanoo Holiday (Fallin'-Flyin')
5. Now and Then
6. Who's Right, Who's Wrong
7. Keep the Fire
8. Give It Half a Chance
9. Will It Last
10. This Is It [Live]
11. Keep the Fire [Live]

EAC Log
Exact Audio Copy V0.99 prebeta 5 from 4. May 2009

EAC extraction logfile from 24. November 2009, 11:12

Kenny Loggins / Keep The Fire

Used drive : Optiarc DVD RW AD-7203S Adapter: 1 ID: 1

Read mode : Secure
Utilize accurate stream : Yes
Defeat audio cache : No
Make use of C2 pointers : Yes

Read offset correction : 48
Overread into Lead-In and Lead-Out : No
Fill up missing offset samples with silence : Yes
Delete leading and trailing silent blocks : No
Null samples used in CRC calculations : No
Used interface : Native Win32 interface for Win NT & 2000

Used output format : Internal WAV Routines
Sample format : 44.100 Hz; 16 Bit; Stereo


TOC of the extracted CD

Track | Start | Length | Start sector | End sector
---------------------------------------------------------
1 | 0:00.00 | 3:53.05 | 0 | 17479
2 | 3:53.05 | 3:21.39 | 17480 | 32593
3 | 7:14.44 | 3:57.02 | 32594 | 50370
4 | 11:11.46 | 4:39.23 | 50371 | 71318
5 | 15:50.69 | 3:56.13 | 71319 | 89031
6 | 19:47.07 | 5:36.70 | 89032 | 114301
7 | 25:24.02 | 4:35.15 | 114302 | 134941
8 | 29:59.17 | 4:58.33 | 134942 | 157324
9 | 34:57.50 | 5:54.16 | 157325 | 183890
10 | 40:51.66 | 4:27.54 | 183891 | 203969
11 | 45:19.45 | 6:16.71 | 203970 | 232240


Range status and errors

Selected range

Filename C:\Documents and Settings\My Music\kenny loggins\Kenny Loggins - Keep The Fire.wav

Peak level 100.0 %
Range quality 100.0 %
Copy CRC 63D9B622
Copy OK

No errors occurred

End of status report






Review by Stephen Thomas Erlewine

With a genuine hit to his credit, Kenny Loggins decided to stretch himself a bit on Keep the Fire, hiring Tom Dowd and toughening his sound slightly, adding a more flamboyant production in the process. He also decided to look like Doug Henning on the cover, which may be a surer sign that success had started to go to his head. All this resulted in a self-consciously tougher record than either of its predecessors, with a punchy sound, detailed production, and shades of boogie.
Relying more on original material, this winds up being more uneven than Nightwatch, but it boasts more character, even if that means something as silly as "Mr. Night." Also, the record, though clearly presented as a relative band effort, complete with a photo of the supporting band on the back cover, winds up not being as unified as its two predecessors, even if it's more "band-like." Still, any complaints are erased by "This Is It," one of two pop classics Loggins recorded.
Yes, the title track also became a hit, but the heart of this album is "This Is It," a mid-tempo charmer with lush, seductive verses, emphatic choruses, and great supporting vocals by Michael McDonald. This summarizes everything that's right about soft rock, and is enough of a masterwork to make the flaws and filler forgivable, since it lends this pleasant soft rock affair a real spine.





You are welcome to visit my BLOG at anytime.
ADVERTISING » High Speed Download « ADVERTISING




Posted By: JGBE47 Date: 26 Nov 2021 16:00:57
Thanks a lot.
Posted By: eisler444 Date: 27 Nov 2021 09:44:09
Спасибо!!!
Posted By: Spanky2 Date: 28 Nov 2021 05:05:36
Thanks a lot!
Recent searches: