Loading...
Done
Home > Music
Keith Jarrett - Paris / London. Testament (2009) [3CD Set]
Posted By : ruskaval | Date : 03 Jan 2022 05:53:50 | Comments : 6

Keith Jarrett - Paris / London. Testament (2009) [3CD Set]
EAC rip (secure mode) | FLAC+CUE+LOG -> 613 Mb | MP3 @320 -> 368 Mb
Full Artwork @ 300 dpi (jpg) -> 58 Mb
© 2009 ECM Records | ECM 2130~32
Jazz / Post Bop / Modern Creative / Piano



This is a specially-packaged, specially-priced three CD set. Improvised, solo music from the great American pianist, recorded at two concerts that took place at the end of last year. In his liner notes, Keith gives a highly personal account of the music s inspirational genesis, which is outstanding, even by his own high standards, with powerful emotions never far from the music s surface. These are recordings to put alongside the very finest in Jarrett s solo idiom. The open format, embracing much music in shorter episodes, follows a pattern similar to that found on Radiance, but there are also flashes of the existential poetic flair which made, for instance, the Sun Bear Concerts such a special musical experience. The release of Testament coincides with the 40th anniversary of the ECM label.

tracklist:
CD1
Salle Pleyel, Paris November 26, 2008: Parts I - VIII

CD2
Royal Festival Hall, London December 1, 2008: Parts I - VI

CD3
Royal Festival Hall, London December 1, 2008: Parts VII - XII



EAC log
Exact Audio Copy V0.99 prebeta 5 from 4. May 2009

EAC extraction logfile from 1. January 2010, 18:36

Keith Jarrett / Paris / London. Testament (CD1)

Used drive : TSSTcorpCD/DVDW TS-H552L Adapter: 3 ID: 0

Read mode : Secure
Utilize accurate stream : Yes
Defeat audio cache : Yes
Make use of C2 pointers : No

Read offset correction : 6
Overread into Lead-In and Lead-Out : No
Fill up missing offset samples with silence : Yes
Delete leading and trailing silent blocks : No
Null samples used in CRC calculations : Yes
Used interface : Native Win32 interface for Win NT & 2000
Gap handling : Appended to previous track

Used output format : User Defined Encoder
Selected bitrate : 1024 kBit/s
Quality : High
Add ID3 tag : No
Command line compressor : C:\Program Files\FLAC\flac.exe
Additional command line options : -6 -V -T "ARTIST=%a" -T "TITLE=%t" -T "ALBUM=%g" -T "DATE=%y" -T "TRACKNUMBER=%n" -T "GENRE=%m" -T "COMMENT=EAC FLAC -6" %s


TOC of the extracted CD

Track | Start | Length | Start sector | End sector
---------------------------------------------------------
1 | 0:00.00 | 13:47.73 | 0 | 62097
2 | 13:47.73 | 10:35.68 | 62098 | 109790
3 | 24:23.66 | 7:05.14 | 109791 | 141679
4 | 31:29.05 | 5:33.13 | 141680 | 166667
5 | 37:02.18 | 8:45.63 | 166668 | 206105
6 | 45:48.06 | 6:30.10 | 206106 | 235365
7 | 52:18.16 | 6:58.60 | 235366 | 266775
8 | 59:17.01 | 10:10.46 | 266776 | 312571


Track 1

Filename C:\Keith Jarrett - Paris-London. Testament (2009) [3CD Set]\CD1\01 - Paris Part 1.wav

Pre-gap length 0:00:02.00

Peak level 66.0 %
Track quality 100.0 %
Test CRC E0737808
Copy CRC E0737808
Accurately ripped (confidence 15) [A8166BF5]
Copy OK

Track 2

Filename C:\Keith Jarrett - Paris-London. Testament (2009) [3CD Set]\CD1\02 - Paris Part 2.wav

Peak level 76.6 %
Track quality 99.9 %
Test CRC F90507ED
Copy CRC F90507ED
Accurately ripped (confidence 15) [24A9A69E]
Copy OK

Track 3

Filename C:\Keith Jarrett - Paris-London. Testament (2009) [3CD Set]\CD1\03 - Paris Part 3.wav

Peak level 98.7 %
Track quality 100.0 %
Test CRC BD3F7A2F
Copy CRC BD3F7A2F
Accurately ripped (confidence 15) [E0359DCE]
Copy OK

Track 4

Filename C:\Keith Jarrett - Paris-London. Testament (2009) [3CD Set]\CD1\04 - Paris Part 4.wav

Peak level 76.4 %
Track quality 100.0 %
Test CRC 68225508
Copy CRC 68225508
Accurately ripped (confidence 15) [6BA690C9]
Copy OK

Track 5

Filename C:\Keith Jarrett - Paris-London. Testament (2009) [3CD Set]\CD1\05 - Paris Part 5.wav

Peak level 90.2 %
Track quality 100.0 %
Test CRC 520F60FD
Copy CRC 520F60FD
Accurately ripped (confidence 15) [B7AE6EF1]
Copy OK

Track 6

Filename C:\Keith Jarrett - Paris-London. Testament (2009) [3CD Set]\CD1\06 - Paris Part 6.wav

Peak level 73.4 %
Track quality 100.0 %
Test CRC 1A4CCA10
Copy CRC 1A4CCA10
Accurately ripped (confidence 15) [62C3818B]
Copy OK

Track 7

Filename C:\Keith Jarrett - Paris-London. Testament (2009) [3CD Set]\CD1\07 - Paris Part 7.wav

Peak level 66.3 %
Track quality 100.0 %
Test CRC BE6612B3
Copy CRC BE6612B3
Accurately ripped (confidence 15) [4A79B6B9]
Copy OK

Track 8

Filename C:\Keith Jarrett - Paris-London. Testament (2009) [3CD Set]\CD1\08 - Paris Part 8.wav

Peak level 98.1 %
Track quality 100.0 %
Test CRC EE165E78
Copy CRC EE165E78
Accurately ripped (confidence 15) [795D5745]
Copy OK


All tracks accurately ripped

No errors occurred

End of status report
--------------------------------------------------------------------------------------------------------------------------------
Exact Audio Copy V0.99 prebeta 5 from 4. May 2009

EAC extraction logfile from 1. January 2010, 18:42

Keith Jarrett / Paris / London. Testament (CD2)

Used drive : TSSTcorpCD/DVDW TS-H552L Adapter: 3 ID: 0

Read mode : Secure
Utilize accurate stream : Yes
Defeat audio cache : Yes
Make use of C2 pointers : No

Read offset correction : 6
Overread into Lead-In and Lead-Out : No
Fill up missing offset samples with silence : Yes
Delete leading and trailing silent blocks : No
Null samples used in CRC calculations : Yes
Used interface : Native Win32 interface for Win NT & 2000
Gap handling : Appended to previous track

Used output format : User Defined Encoder
Selected bitrate : 1024 kBit/s
Quality : High
Add ID3 tag : No
Command line compressor : C:\Program Files\FLAC\flac.exe
Additional command line options : -6 -V -T "ARTIST=%a" -T "TITLE=%t" -T "ALBUM=%g" -T "DATE=%y" -T "TRACKNUMBER=%n" -T "GENRE=%m" -T "COMMENT=EAC FLAC -6" %s


TOC of the extracted CD

Track | Start | Length | Start sector | End sector
---------------------------------------------------------
1 | 0:00.00 | 11:08.63 | 0 | 50162
2 | 11:08.63 | 8:10.09 | 50163 | 86921
3 | 19:18.72 | 6:50.12 | 86922 | 117683
4 | 26:09.09 | 5:58.19 | 117684 | 144552
5 | 32:07.28 | 10:34.13 | 144553 | 192115
6 | 42:41.41 | 6:52.23 | 192116 | 223038


Track 1

Filename C:\Keith Jarrett - Paris-London. Testament (2009) [3CD Set]\CD2\01 - London, Part I.wav

Pre-gap length 0:00:02.00

Peak level 91.7 %
Track quality 100.0 %
Test CRC D998C1A5
Copy CRC D998C1A5
Accurately ripped (confidence 15) [0897526A]
Copy OK

Track 2

Filename C:\Keith Jarrett - Paris-London. Testament (2009) [3CD Set]\CD2\02 - London, Part II.wav

Peak level 83.9 %
Track quality 99.9 %
Test CRC FA48C900
Copy CRC FA48C900
Accurately ripped (confidence 15) [16D1C487]
Copy OK

Track 3

Filename C:\Keith Jarrett - Paris-London. Testament (2009) [3CD Set]\CD2\03 - London, Part III.wav

Peak level 78.7 %
Track quality 100.0 %
Test CRC 61764D7B
Copy CRC 61764D7B
Accurately ripped (confidence 15) [6CDEF34C]
Copy OK

Track 4

Filename C:\Keith Jarrett - Paris-London. Testament (2009) [3CD Set]\CD2\04 - London, Part IV.wav

Peak level 72.5 %
Track quality 100.0 %
Test CRC CD6594EA
Copy CRC CD6594EA
Accurately ripped (confidence 15) [8B0B22AC]
Copy OK

Track 5

Filename C:\Keith Jarrett - Paris-London. Testament (2009) [3CD Set]\CD2\05 - London, Part V.wav

Peak level 79.3 %
Track quality 100.0 %
Test CRC AC4D500F
Copy CRC AC4D500F
Accurately ripped (confidence 15) [CE6D0152]
Copy OK

Track 6

Filename C:\Keith Jarrett - Paris-London. Testament (2009) [3CD Set]\CD2\06 - London, Part VI.wav

Peak level 73.2 %
Track quality 100.0 %
Test CRC A1A2A82F
Copy CRC A1A2A82F
Accurately ripped (confidence 15) [2A18AD45]
Copy OK


All tracks accurately ripped

No errors occurred

End of status report
------------------------------------------------------------------------------------------------------------------------------
Exact Audio Copy V0.99 prebeta 5 from 4. May 2009

EAC extraction logfile from 1. January 2010, 18:54

Keith Jarrett / Paris / London. Testament (CD3)

Used drive : TSSTcorpCD/DVDW TS-H552L Adapter: 3 ID: 0

Read mode : Secure
Utilize accurate stream : Yes
Defeat audio cache : Yes
Make use of C2 pointers : No

Read offset correction : 6
Overread into Lead-In and Lead-Out : No
Fill up missing offset samples with silence : Yes
Delete leading and trailing silent blocks : No
Null samples used in CRC calculations : Yes
Used interface : Native Win32 interface for Win NT & 2000
Gap handling : Appended to previous track

Used output format : User Defined Encoder
Selected bitrate : 1024 kBit/s
Quality : High
Add ID3 tag : No
Command line compressor : C:\Program Files\FLAC\flac.exe
Additional command line options : -6 -V -T "ARTIST=%a" -T "TITLE=%t" -T "ALBUM=%g" -T "DATE=%y" -T "TRACKNUMBER=%n" -T "GENRE=%m" -T "COMMENT=EAC FLAC -6" %s


TOC of the extracted CD

Track | Start | Length | Start sector | End sector
---------------------------------------------------------
1 | 0:00.00 | 8:59.38 | 0 | 40462
2 | 8:59.38 | 8:00.69 | 40463 | 76531
3 | 17:00.32 | 3:55.54 | 76532 | 94210
4 | 20:56.11 | 5:35.29 | 94211 | 119364
5 | 26:31.40 | 8:25.60 | 119365 | 157299
6 | 34:57.25 | 8:29.55 | 157300 | 195529


Track 1

Filename C:\Keith Jarrett - Paris-London. Testament (2009) [3CD Set]\CD3\01 - London, Part VII.wav

Pre-gap length 0:00:02.00

Peak level 91.3 %
Track quality 100.0 %
Test CRC 6BE81574
Copy CRC 6BE81574
Accurately ripped (confidence 14) [E6F97145]
Copy OK

Track 2

Filename C:\Keith Jarrett - Paris-London. Testament (2009) [3CD Set]\CD3\02 - London, Part VIII.wav

Peak level 83.8 %
Track quality 100.0 %
Test CRC 7EC0D69A
Copy CRC 7EC0D69A
Accurately ripped (confidence 14) [663CF9B0]
Copy OK

Track 3

Filename C:\Keith Jarrett - Paris-London. Testament (2009) [3CD Set]\CD3\03 - London, Part IX.wav

Peak level 75.9 %
Track quality 100.0 %
Test CRC 2C174937
Copy CRC 2C174937
Accurately ripped (confidence 14) [7767C4C7]
Copy OK

Track 4

Filename C:\Keith Jarrett - Paris-London. Testament (2009) [3CD Set]\CD3\04 - London, Part X.wav

Peak level 97.3 %
Track quality 99.9 %
Test CRC 5D0E7A6B
Copy CRC 5D0E7A6B
Accurately ripped (confidence 14) [430D3DC2]
Copy OK

Track 5

Filename C:\Keith Jarrett - Paris-London. Testament (2009) [3CD Set]\CD3\05 - London, Part XI.wav

Peak level 85.0 %
Track quality 100.0 %
Test CRC B2CD5798
Copy CRC B2CD5798
Accurately ripped (confidence 14) [05D2F49E]
Copy OK

Track 6

Filename C:\Keith Jarrett - Paris-London. Testament (2009) [3CD Set]\CD3\06 - London, Part XII.wav

Peak level 92.9 %
Track quality 99.9 %
Test CRC D6099292
Copy CRC D6099292
Accurately ripped (confidence 14) [120F2A84]
Copy OK


All tracks accurately ripped

No errors occurred

End of status report

Please don't post the links and passes in your comments...

Linkz
ADVERTISING » Download fast « ADVERTISING
Posted By: arthouse Date: 03 Jan 2022 08:21:41
i've been waiting for this one,
and of course it had to be you posting it.
thank you
Posted By: TürkJazzMania Date: 03 Jan 2022 11:16:30
Thanks a lot, ruskaval.
Posted By: Turun Date: 03 Jan 2022 12:11:38
Thank you very much !!
Posted By: john43 Date: 03 Jan 2022 13:41:04
lovely music tnx
Posted By: aleye Date: 03 Jan 2022 16:17:30
great post!!! tank you
Posted By: Blue61 Date: 03 Jan 2022 18:42:34
Thank you very much from Spain.
Muchas gracias !!!
DONATE AVAXHOME:

Donate please!