Loading...
Done
Home > Music
Katherine Jenkins - Rejoice (2007) [lossless]
Posted By : stfine | Date : 01 Mar 2022 01:19:44 | Comments : 3
Katherine Jenkins - Rejoice (2007) lossless

Katherine Jenkins - Rejoice (2007) [lossless]
Classical Vocal, Crossover, Pop | FLAC image, CUE, LOG | covers 300dpi | 311 MB (incl. recovery)
Label: Decca

One-woman classical crossover cottage industry Jenkins follows 2006's 'Serenade' with this, her fifth album in as many years. While on this release she continues to tackle pieces from the classical repertoire and "classicized" renditions of pop standards, it also sees her developing more of a pop sound, with big production numbers sung in English, including two songs written specifically for her by Take That's Gary Barlow.

Tracklist
1. Rejoice (03:15)
2. I (Who Have Nothing) (02:43)
3. Sancta Maria (03:49)
4. Secret Love (03:55)
5. Le Cose Che Sei Per Me (The Things You Are To Me) (04:20)
6. How Do You Leave The One You Love? (04:08)
7. Requiem For A Soldier (03:46)
8. Somewhere (03:34)
9. Shout In Silence (04:47)
10. Be Still My Soul (03:42)
11. Kiss From A Rose (04:51)
12. I Will Pray For You (04:46)
13. Viva Tonight (05:26)

EAC log
Exact Audio Copy V0.99 prebeta 4 from 23. January 2008

Отчёт EAC об извлечении, выполненном 3. июля 2009, 23:55

Katherine Jenkins / Rejoice

Дисковод: PIONEER DVD-RW DVR-109 Adapter: 0 ID: 0

Режим чтения : Достоверность
Использование точного потока : Да
Отключение кэша аудио : Да
Использование указателей C2 : Нет

Коррекция смещения при чтении : 48
Способность читать области Lead-in и Lead-out : Нет
Заполнение пропущенных сэмплов тишиной : Да
Удаление блоков с тишиной в начале и конце : Нет
При вычислениях CRC использовались нулевые сэмплы : Да
Интерфейс : Встроенный Win32-интерфейс для Win NT/2000

Выходной формат : Пользовательский кодировщик
Выбранный битрейт : 128 kBit/s
Качество : Высокий
Добавление ID3-тэга : Нет
Утилита сжатия : C:\Program Files\Exact Audio Copy\Flac\flac.exe
Дополнительные параметры : -8 -V %s


TOC извлечённого CD

Трек | Старт | Длительность | Начальный сектор | Конечный сектор
---------------------------------------------------------------------
1 | 0:00.00 | 3:15.18 | 0 | 14642
2 | 3:15.18 | 2:43.00 | 14643 | 26867
3 | 5:58.18 | 3:49.15 | 26868 | 44057
4 | 9:47.33 | 3:55.51 | 44058 | 61733
5 | 13:43.09 | 4:20.46 | 61734 | 81279
6 | 18:03.55 | 4:08.37 | 81280 | 99916
7 | 22:12.17 | 3:46.63 | 99917 | 116929
8 | 25:59.05 | 3:34.72 | 116930 | 133051
9 | 29:34.02 | 4:47.17 | 133052 | 154593
10 | 34:21.19 | 3:42.70 | 154594 | 171313
11 | 38:04.14 | 4:51.21 | 171314 | 193159
12 | 42:55.35 | 4:46.19 | 193160 | 214628
13 | 47:41.54 | 5:26.09 | 214629 | 239087


Характеристики диапазона извлечения и сообщения об ошибках

Выбранный диапазон

Имя файла E:\music\Eac\Katherine Jenkins - Rejoice.wav

Пиковый уровень 100.0 %
Качество диапазона 100.0 %
CRC теста 8B205E1C
CRC копии 8B205E1C
Копирование... OK

Ошибок не произошло


AccurateRip: сводка

Трек 1 точность не определена (достоверность 14) [C5355973], AccurateRip вернул [FF39916F]
Трек 2 точность не определена (достоверность 14) [7D1E3FB5], AccurateRip вернул [A520F2C3]
Трек 3 точность не определена (достоверность 14) [D4A89943], AccurateRip вернул [6A5A910F]
Трек 4 точность не определена (достоверность 14) [3115D309], AccurateRip вернул [E51C9A07]
Трек 5 точность не определена (достоверность 14) [6FC349A8], AccurateRip вернул [39D2E9A5]
Трек 6 точность не определена (достоверность 14) [7B5B9ECC], AccurateRip вернул [E5A8775F]
Трек 7 точность не определена (достоверность 14) [64DC524C], AccurateRip вернул [7A6885DE]
Трек 8 точность не определена (достоверность 14) [771057F3], AccurateRip вернул [B9D639B3]
Трек 9 точность не определена (достоверность 14) [0EF17969], AccurateRip вернул [9E301881]
Трек 10 точность не определена (достоверность 14) [90C15C99], AccurateRip вернул [D5E4FC47]
Трек 11 точность не определена (достоверность 14) [8E0BBE25], AccurateRip вернул [3D35B9C7]
Трек 12 точность не определена (достоверность 14) [E5109100], AccurateRip вернул [342FFA34]
Трек 13 точность не определена (достоверность 14) [4DB15CFF], AccurateRip вернул [CCAAE2EF]

Ни один трек не прошёл проверки на точность
В вашей базе может быть иной вариант штамповки диска

Конец отчёта

Listen to samples on Amazon.co.uk

ADVERTISING » Download fast « ADVERTISING
Posted By: dangdang Date: 01 Mar 2022 07:22:20
Domo arigato!
Posted By: gyy687888 Date: 01 Mar 2022 16:19:05
Great! Thanks soooooooooooo much!
Posted By: rettib99 Date: 04 Mar 2022 01:54:17
Thank you, thank you, thank you!
Recent searches:
DONATE AVAXHOME:

Donate please!