Loading...
Done
Home > Music
Joe Satriani, Steve Vai, Eric Johnson - G3 Live in Concert (LIVE, 1997)
Posted By : Xmaster | Date : 28 Feb 2022 21:50:06 | Comments : 1

Joe Satriani, Steve Vai, Eric Johnson - G3 Live in Concert (LIVE, 1997)
1CD | FLAC-IMAGE+CUE +LOG +SCANS | 3 Jun. 1997 | 578,18 Мb
Genre: Instrumental, Guitar Rock | Label: Sony


From amazon.com
On G3 Live three of the most talented electric guitar players of all-time come together for an album that sizzles with creative synergy. Each of the three play three of their best pieces- Satriani starts out kind of mellow and cool with "Dreaming # 11," picks up momentum with "Flying in a Blue Dream," then closes his set with an ear-popping rendition of "Summer Song" that really cooks! Satriani's live tracks are very impressive for their creative virtuousity and willingness to explore new musical ideas that may differ a bit from his studio cut, which he then weaves together masterfully- taking a classic work and giving it a fresh, edgy and breath-taking new interpretation.

Eric Johnson dazzles the listener with an amazing blend of guitar styles that flow together seamlessly- ranging from a bluesy, jazz-rock style on Zap, to the rich jazz progressions and solo work on Manhattan to the intricate merging of blues and shred rock on Camel's Night Out.

Steve Vai highlights some of his better work here with Answers, For the Love of God and Attitude Song. His awesomely arpeggiated melodic lines soar as they seem to rise out of nowhere and fly out into space. Out of the three on this album, Vai seems to get the most unique sounds out of the instrument- he makes it sing, ring, scream, cry and soar... my only major critique of Vai's guitar work is that the harmonies and sounds he uses in the background tend to distract from his melodic lines rather than enhance them as they do with Satriani and to some degree with Johnson.

Out of the three pieces they play together, their version of RED HOUSE is awesome! The three blend and complement one another nicely, beginning with a classic blues opening and gradually building in intensity. the song is extended to include a solo by each of the three after each verse, and to close it out they trade eights- (one guitar plays a riff and the next one responds), finishing strong with a great ending. Hendrix would have been proud and probably impressed by this fine rendition. The only liability with their cover of RED HOUSE is Eric Johnson's drab singing, but then again- when you listen, you will be so amazed by the guitar work that Roseanne Barr could be singing, and it would still sound pretty darn good! But seriously, it is an awesome album, that gives an excellent taste of some of the best work of these three- check it out!

INFO
amazon.co.uk




Tracklist:

1. Cool No. 9 - Joe Satriani
2. Flying in a Blue Dream - Joe Satriani
3. Summer Song - Joe Satriani
4. Zap - Eric Johnson
5. Manhattan - Eric Johnson
6. Camel's Night Out - Eric Johnson
7. Answers - Steve Vai
8. For the Love of God - Steve Vai
9. Attitude Song - Steve Vai
10. Going Down - Eric Johnson, Joe Satriani, Steve Vai
11. My Guitar Wants to Kill Your Mama - Eric Johnson, Joe Satriani, Steve Vai
12. Red House - Eric Johnson, Joe Satriani, Steve Vai

EAC LOG
Exact Audio Copy V0.99 prebeta 4 from 23. January 2008

EAC extraction logfile from 4. February 2009, 21:22

Joe Satriani, Steve Vai, Eric Johnson / G3: Live in Concert [LIVE]

Used drive : TSSTcorpCDDVDW SH-S202J Adapter: 1 ID: 0

Read mode : Secure
Utilize accurate stream : Yes
Defeat audio cache : Yes
Make use of C2 pointers : No

Read offset correction : 6
Overread into Lead-In and Lead-Out : No
Fill up missing offset samples with silence : Yes
Delete leading and trailing silent blocks : No
Null samples used in CRC calculations : Yes
Used interface : Installed external ASPI interface

Used output format : Internal WAV Routines
Sample format : 44.100 Hz; 16 Bit; Stereo

TOC of the extracted CD

Track | Start | Length | Start sector | End sector
---------------------------------------------------------
1 | 0:00.00 | 6:46.57 | 0 | 30506
2 | 6:46.57 | 5:59.05 | 30507 | 57436
3 | 12:45.62 | 6:29.33 | 57437 | 86644
4 | 19:15.20 | 6:06.67 | 86645 | 114161
5 | 25:22.12 | 5:16.15 | 114162 | 137876
6 | 30:38.27 | 5:57.00 | 137877 | 164651
7 | 36:35.27 | 6:58.10 | 164652 | 196011
8 | 43:33.37 | 7:46.70 | 196012 | 231031
9 | 51:20.32 | 5:15.20 | 231032 | 254676
10 | 56:35.52 | 5:47.25 | 254677 | 280726
11 | 62:23.02 | 5:21.05 | 280727 | 304806
12 | 67:44.07 | 9:11.58 | 304807 | 346189

Range status and errors

Selected range

Filename E:\РОЗДАЧА\Joe Satriani, Steve Vai, Eric Johnson - G3 Live in Concert [LIVE].wav

Peak level 100.0 %
Range quality 99.1 %
Test CRC 48BB4CED
Copy CRC 48BB4CED
Copy OK

No errors occurred

AccurateRip summary

Track 1 accurately ripped (confidence 13) [E87E97EF]
Track 2 accurately ripped (confidence 13) [2F65EB34]
Track 3 accurately ripped (confidence 14) [60D4C1C3]
Track 4 accurately ripped (confidence 14) [9697619E]
Track 5 accurately ripped (confidence 14) [344B86CD]
Track 6 accurately ripped (confidence 12) [F2EC9E5F]
Track 7 accurately ripped (confidence 10) [319E4C73]
Track 8 accurately ripped (confidence 13) [4D5069A3]
Track 9 accurately ripped (confidence 13) [F8F7EED7]
Track 10 accurately ripped (confidence 11) [26EC2419]
Track 11 accurately ripped (confidence 9) [8E46B0FE]
Track 12 accurately ripped (confidence 9) [B61EE14C]

All tracks accurately ripped

End of status report




All thanks for original release going to -Vasil 61-

ADVERTISING » Download fast « ADVERTISING
Posted By: gonzalo76 Date: 01 Mar 2022 05:16:26
Thank you very kindly !
Recent searches:
DONATE AVAXHOME:

Donate please!