Loading...
Done
Home > Music
Jimmy Smith - The Complete Sermon Sessions (ft. Lee Morgan & Tina Brooks) (2009) [2CD]
Posted By : ruskaval | Date : 08 Jan 2022 11:14:37 | Comments : 6

Jimmy Smith - The Complete Sermon Sessions (ft. Lee Morgan & Tina Brooks) (2009) [2CD]
EAC rip (secure mode) | FLAC+CUE+LOG -> 990 Mb | MP3 @320 -> 333 Mb
Full Artwork @ 300 dpi (png) -> 44 Mb
© 2009 Groove Hut Records | GH 66712
Jazz / Hard Bop / Soul Jazz



2009 release from the Jazz great containing Smith's complete classic Sermon sessions, in chronological order, together for the first time ever on a single set. These are his only preserved collaborations with Lee Morgan, the formidable trumpet player whose life came to a tragic end after being shot by his girlfriend at the tender age of 33. Tenor saxophonist Tina Brooks is also featured here. The outstanding reedman would pass away at the age of 42 after a life of drug addiction and self abuse. The great Jimmy Smiths was a Jazz musician whose performances on the Hammond B-3 electric organ helped to popularize this instrument.

Personnel: Jimmy Smith (organ); Lee Morgan (trumpet); Curtis Fuller (trombone); Donald Bailey (drums); Lou Donaldson (alto saxophone); Kenny Burrell (guitar). etc..

tracklist:
CD1
1. J.O.S.
2. What is This Thing Called Love
3. Just Friends
4. Cherokee
5. Little Girl Blue
6. 'S Wonderful

CD2
1. The Blue Room
2. Blues After All
3. Lover Man
4. Confirmation
5. Au Privave
6. Flamingo
7. The Sermon

FOR ALL MY FRIENDS...




EAC log
Exact Audio Copy V0.99 prebeta 5 from 4. May 2009

EAC extraction logfile from 6. January 2010, 19:01

Jimmy Smith / The Complete Sermon Sessions (CD1)

Used drive : TSSTcorpCD/DVDW TS-H552L Adapter: 3 ID: 0

Read mode : Secure
Utilize accurate stream : Yes
Defeat audio cache : Yes
Make use of C2 pointers : No

Read offset correction : 6
Overread into Lead-In and Lead-Out : No
Fill up missing offset samples with silence : Yes
Delete leading and trailing silent blocks : No
Null samples used in CRC calculations : Yes
Used interface : Native Win32 interface for Win NT & 2000
Gap handling : Appended to previous track

Used output format : User Defined Encoder
Selected bitrate : 1024 kBit/s
Quality : High
Add ID3 tag : No
Command line compressor : C:\Program Files\FLAC\flac.exe
Additional command line options : -6 -V -T "ARTIST=%a" -T "TITLE=%t" -T "ALBUM=%g" -T "DATE=%y" -T "TRACKNUMBER=%n" -T "GENRE=%m" -T "COMMENT=EAC FLAC -6" %s


TOC of the extracted CD

Track | Start | Length | Start sector | End sector
---------------------------------------------------------
1 | 0:00.00 | 11:58.60 | 0 | 53909
2 | 11:58.60 | 15:17.02 | 53910 | 122686
3 | 27:15.62 | 15:19.36 | 122687 | 191647
4 | 42:35.23 | 20:21.38 | 191648 | 283260
5 | 62:56.61 | 5:20.34 | 283261 | 307294
6 | 68:17.20 | 5:00.47 | 307295 | 329841


Track 1

Filename C:\Jimmy Smith - The Complete Sermon Sessions (ft. Lee Morgan & Tina Brooks) (2009) [2CD]\CD1\01 - J.O.S..wav

Pre-gap length 0:00:02.00

Peak level 97.7 %
Track quality 100.0 %
Test CRC 6D2D83F4
Copy CRC 6D2D83F4
Accurately ripped (confidence 1) [94511499]
Copy OK

Track 2

Filename C:\Jimmy Smith - The Complete Sermon Sessions (ft. Lee Morgan & Tina Brooks) (2009) [2CD]\CD1\02 - What Is This Thing Called Love.wav

Peak level 96.5 %
Track quality 100.0 %
Test CRC BE2A10A4
Copy CRC BE2A10A4
Accurately ripped (confidence 1) [9B23F878]
Copy OK

Track 3

Filename C:\Jimmy Smith - The Complete Sermon Sessions (ft. Lee Morgan & Tina Brooks) (2009) [2CD]\CD1\03 - Just Friends.wav

Peak level 100.0 %
Track quality 99.9 %
Test CRC DBD58B90
Copy CRC DBD58B90
Accurately ripped (confidence 1) [C6669FA6]
Copy OK

Track 4

Filename C:\Jimmy Smith - The Complete Sermon Sessions (ft. Lee Morgan & Tina Brooks) (2009) [2CD]\CD1\04 - Cherokee.wav

Peak level 94.6 %
Track quality 100.0 %
Test CRC B63F7E0B
Copy CRC B63F7E0B
Accurately ripped (confidence 1) [54D00EF0]
Copy OK

Track 5

Filename C:\Jimmy Smith - The Complete Sermon Sessions (ft. Lee Morgan & Tina Brooks) (2009) [2CD]\CD1\05 - Little Girl Blue.wav

Peak level 98.6 %
Track quality 99.9 %
Test CRC 4561850B
Copy CRC 4561850B
Accurately ripped (confidence 1) [3C86F7F2]
Copy OK

Track 6

Filename C:\Jimmy Smith - The Complete Sermon Sessions (ft. Lee Morgan & Tina Brooks) (2009) [2CD]\CD1\06 - 'S Wonderful.wav

Peak level 100.0 %
Track quality 100.0 %
Test CRC C9671386
Copy CRC C9671386
Accurately ripped (confidence 1) [D952F28C]
Copy OK


All tracks accurately ripped

No errors occurred

End of status report
-----------------------------------------------------------------------------------------------------------------------------------------
Exact Audio Copy V0.99 prebeta 5 from 4. May 2009

EAC extraction logfile from 6. January 2010, 19:11

Jimmy Smith / The Complete Sermon Sessions (CD2)

Used drive : TSSTcorpCD/DVDW TS-H552L Adapter: 3 ID: 0

Read mode : Secure
Utilize accurate stream : Yes
Defeat audio cache : Yes
Make use of C2 pointers : No

Read offset correction : 6
Overread into Lead-In and Lead-Out : No
Fill up missing offset samples with silence : Yes
Delete leading and trailing silent blocks : No
Null samples used in CRC calculations : Yes
Used interface : Native Win32 interface for Win NT & 2000
Gap handling : Appended to previous track

Used output format : User Defined Encoder
Selected bitrate : 1024 kBit/s
Quality : High
Add ID3 tag : No
Command line compressor : C:\Program Files\FLAC\flac.exe
Additional command line options : -6 -V -T "ARTIST=%a" -T "TITLE=%t" -T "ALBUM=%g" -T "DATE=%y" -T "TRACKNUMBER=%n" -T "GENRE=%m" -T "COMMENT=EAC FLAC -6" %s


TOC of the extracted CD

Track | Start | Length | Start sector | End sector
---------------------------------------------------------
1 | 0:00.00 | 5:32.73 | 0 | 24972
2 | 5:32.73 | 6:08.10 | 24973 | 52582
3 | 11:41.08 | 7:02.17 | 52583 | 84249
4 | 18:43.25 | 10:35.31 | 84250 | 131905
5 | 29:18.56 | 15:11.69 | 131906 | 200299
6 | 44:30.50 | 8:03.03 | 200300 | 236527
7 | 52:33.53 | 20:12.56 | 236528 | 327483


Track 1

Filename C:\Jimmy Smith - The Complete Sermon Sessions (ft. Lee Morgan & Tina Brooks) (2009) [2CD]\CD2\01 - The Blue Room.wav

Pre-gap length 0:00:02.00

Peak level 93.0 %
Track quality 100.0 %
Test CRC 10CCABA7
Copy CRC 10CCABA7
Accurately ripped (confidence 1) [B54D7FC7]
Copy OK

Track 2

Filename C:\Jimmy Smith - The Complete Sermon Sessions (ft. Lee Morgan & Tina Brooks) (2009) [2CD]\CD2\02 - Blues After All.wav

Peak level 89.6 %
Track quality 100.0 %
Test CRC C27FA4D6
Copy CRC C27FA4D6
Accurately ripped (confidence 1) [6F36BAB8]
Copy OK

Track 3

Filename C:\Jimmy Smith - The Complete Sermon Sessions (ft. Lee Morgan & Tina Brooks) (2009) [2CD]\CD2\03 - Lover Man.wav

Peak level 95.9 %
Track quality 100.0 %
Test CRC BD4BA2B7
Copy CRC BD4BA2B7
Accurately ripped (confidence 1) [9A957166]
Copy OK

Track 4

Filename C:\Jimmy Smith - The Complete Sermon Sessions (ft. Lee Morgan & Tina Brooks) (2009) [2CD]\CD2\04 - Confirmation.wav

Peak level 100.0 %
Track quality 100.0 %
Test CRC DDB50DB4
Copy CRC DDB50DB4
Accurately ripped (confidence 1) [11268AF6]
Copy OK

Track 5

Filename C:\Jimmy Smith - The Complete Sermon Sessions (ft. Lee Morgan & Tina Brooks) (2009) [2CD]\CD2\05 - Au Privave.wav

Peak level 99.9 %
Track quality 100.0 %
Test CRC 0085E28A
Copy CRC 0085E28A
Accurately ripped (confidence 1) [0BDECFC6]
Copy OK

Track 6

Filename C:\Jimmy Smith - The Complete Sermon Sessions (ft. Lee Morgan & Tina Brooks) (2009) [2CD]\CD2\06 - Flamingo.wav

Peak level 99.8 %
Track quality 100.0 %
Test CRC E12A6F5F
Copy CRC E12A6F5F
Accurately ripped (confidence 1) [78909ED4]
Copy OK

Track 7

Filename C:\Jimmy Smith - The Complete Sermon Sessions (ft. Lee Morgan & Tina Brooks) (2009) [2CD]\CD2\07 - The Sermon.wav

Peak level 94.3 %
Track quality 100.0 %
Test CRC 8F40DD83
Copy CRC 8F40DD83
Accurately ripped (confidence 1) [F7D3B7F9]
Copy OK


All tracks accurately ripped

No errors occurred

End of status report

Please don't post the links and passes in your comments...

Linkz
ADVERTISING » Download fast « ADVERTISING
Posted By: movie Date: 08 Jan 2022 14:58:40
what a staff...
particularly on disc two, tracks 4-7.
what more could a heart desire? :)
Posted By: lkrushel Date: 08 Jan 2022 19:24:54
Thank you very much for yet another great post!
Posted By: Turun Date: 08 Jan 2022 19:55:14
Wonderful post, thank you very much !!!
Posted By: johncocuyo Date: 09 Jan 2022 02:38:23
Thank you, for another great post
Posted By: 1401 Date: 09 Jan 2022 08:47:07
thanks a lot for the complete "sermon" sessions! can't wait to listen to them... :-)
Posted By: dukee Date: 10 Jan 2022 14:47:00
THANK YOU VERY MUCH!!!
DONATE AVAXHOME:

Donate please!