Loading...
Done
Home > Music
J. Ch. Bach - Sacred Works
Posted By : alekhno | Date : 14 Feb 2022 02:01:38 | Comments : 4

Johann Christian Bach - Sacred Works
Classical | EAC | FLAC, CUE, LOG | 1 CD | Covers | 310 Mb | rs.com | 2001
L'Orfeo Barockorchester, Michi Gaigg

"...The 'Salve regina,' for solo soprano, is surely a candidate for the most limpid and euphonious of all settings of the Marian antiphon... Emma Kirkby is on superlative form in the 'Salve regina,' singing with all the grace, agility and command of ornament (including a perfect trill) this music demands... The orchestra accompanies tidily. If you fancy a change from, say, Mozart's Exsultate, jubilate, this attractive disc could well be the answer." **** -BBC Music


Salve Regina, antiphon for soprano & chamber orchestra in F, CW E24 (T. 209/1)
Laudate pueri (Psalm 112), vesper-psalm for 2 solo voices & orchestra in G, CW E19 (T. 206/1)
Si nocte tenebrosa, solo motet for voice & orchestra, CW F4a (T. 209/5)


Label: CPO Records
Catalog No: CPO 999718-2


EAC LOG
Exact Audio Copy V0.99 prebeta 4 from 23. January 2008

EAC extraction logfile from 30. November 2009, 11:34

JC Bach / Sacred Works

Used drive : _NEC DVD_RW ND-4550A Adapter: 3 ID: 0

Read mode : Secure
Utilize accurate stream : Yes
Defeat audio cache : No
Make use of C2 pointers : Yes

Read offset correction : 48
Overread into Lead-In and Lead-Out : No
Fill up missing offset samples with silence : Yes
Delete leading and trailing silent blocks : No
Null samples used in CRC calculations : Yes
Used interface : Native Win32 interface for Win NT & 2000

Used output format : User Defined Encoder
Selected bitrate : 1024 kBit/s
Quality : High
Add ID3 tag : Yes
Command line compressor : C:\Program Files\Exact Audio Copy\FLAC\FLAC.EXE
Additional command line options : -0 -V -T "ARTIST=%a" -T "TITLE=%t" -T "ALBUM=%g" -T "DATE=%y" -T "TRACKNUMBER=%n" -T "GENRE=%m" -T "COMMENT=%e" %s -o %d


TOC of the extracted CD

Track | Start | Length | Start sector | End sector
---------------------------------------------------------
1 | 0:00.00 | 4:42.25 | 0 | 21174
2 | 4:42.25 | 4:09.35 | 21175 | 39884
3 | 8:51.60 | 3:56.65 | 39885 | 57649
4 | 12:48.50 | 3:58.02 | 57650 | 75501
5 | 16:46.52 | 1:02.70 | 75502 | 80221
6 | 17:49.47 | 2:58.00 | 80222 | 93571
7 | 20:47.47 | 4:11.28 | 93572 | 112424
8 | 24:59.00 | 4:37.27 | 112425 | 133226
9 | 29:36.27 | 6:46.50 | 133227 | 163726
10 | 36:23.02 | 4:39.50 | 163727 | 184701
11 | 41:02.52 | 2:32.20 | 184702 | 196121
12 | 43:34.72 | 7:42.70 | 196122 | 230841
13 | 51:17.67 | 1:46.43 | 230842 | 238834
14 | 53:04.35 | 5:27.40 | 238835 | 263399
15 | 58:32.00 | 0:18.55 | 263400 | 264804
16 | 58:50.55 | 2:13.07 | 264805 | 274786


Range status and errors

Selected range

Filename C:\Documents and Settings\DimAleh\Рабочий стол\pub\Stereo Culture Square\cpo999718-2 Bach, J.C. - Sacred Works\JC Bach - Sacred Works.wav

Peak level 98.3 %
Range quality 99.9 %
Copy CRC FCD0AE4D
Copy OK

No errors occurred


AccurateRip summary

Track 1 not present in database
Track 2 not present in database
Track 3 not present in database
Track 4 not present in database
Track 5 not present in database
Track 6 not present in database
Track 7 not present in database
Track 8 not present in database
Track 9 not present in database
Track 10 not present in database
Track 11 not present in database
Track 12 not present in database
Track 13 not present in database
Track 14 not present in database
Track 15 not present in database
Track 16 not present in database

None of the tracks are present in the AccurateRip database

End of status report







See also:






PLEASE NO MIRRORS
ADVERTISING » Download fast « ADVERTISING
Posted By: zedda piras Date: 14 Feb 2022 09:17:24
Thank you alekhno!
Posted By: ArlegZ Date: 14 Feb 2022 11:30:20
Великолепно!!! Спасибо Вам огромное!!!
Posted By: robthewood Date: 14 Feb 2022 16:18:51
Merci Dmitri !!
Posted By: trench Date: 14 Feb 2022 21:18:14

Thank you alekhno...this will do nicely
Recent searches:
DONATE AVAXHOME:

Donate please!