Loading...
Done
Home > Music > +Jazz
Quincy Jones - Ultimate Collection (2002)
Posted By : plonker | Date : 08 Feb 2022 21:44:49 | Comments : 1

Quincy Jones - Ultimate Collection (2002)
Jazz | EAC rip | WavPack: IMG+CUE+EAC/log -> 500 MB | [email protected] V0 (245kbps) -> 144 MB
75:32 min | scans 600dpi | RAR inc. 3% recovery | RS & FF | Universal 583 565-2 SACD [CD layer only]

AMG review by William Ruhlmann:

In 1974, Quincy Jones, who already had a wide range of musical credits behind him, opted to enter the R&B mainstream by hiring vocalists and overseeing recordings in a commercial vein released under his name. The first of them was Body Heat, which went gold, and Jones followed with a series of records including 1981's million-selling The Dude and the 1990 Album of the Year Grammy-winner Back on the Block. Meanwhile, he switched record labels, leaving A&M for his own Warner-distributed Qwest in the early '80s. That has tended to make the assembly of a comprehensive best-of difficult, but Universal's Hip-O reissue division specializes in licensing material from other labels to construct its Ultimate Collection releases, and this one borrows seven out of 18 tracks from Qwest to add to Jones' A&M hits, making it the definitive one-disc compilation of Jones' pop/R&B recordings of 1974-1999. Jones himself participated in the selection, which does not strictly follow chart rankings, since a couple of R&B Top 20 hits ("I Don't Go for That" and "Slow Jams") are missing, while a few non-chart items are included. To get more songs in, the singles edits have been used in many cases. But all the major hits are here. The chronological sequencing allows an appreciation of how Jones' approach changed over the years. The '70s stuff, which holds up surprisingly well, is tasty R&B, much of it groove-oriented, up-tempo music. By the late '80s, however, there are a lot of big, bland ballads that showcase superstar vocalists (Ray Charles, Barry White, etc.) and sound self-important. Like his protégé, Michael Jackson, who went from the rocking "Billie Jean" to the messianic "Man in the Mirror" in the same period, Jones seems to have begun believing his press clippings, and his work suffered accordingly.

Release date: Apr 16, 2022

Tracklist:
01 If I Ever Lose This Heaven (03:38)
02 Everything Must Change (06:02)
03 Body Heat (03:59)
04 Is It Love That We're Missin' (03:18)
05 Mellow Madness (03:29)
06 Stuff Like That (03:08)
07 Ai No Corrida (04:14)
08 Razzamatazz (04:10)
09 Just Once (04:35)
10 Betcha' Wouldn't Hurt Me (03:35)
11 One Hundred Ways (04:20)
12 I'll Be Good To You (04:56)
13 The Secret Garden (06:41)
14 Tomorrow (A Better You, Better Me) (04:54)
15 You Put A Move On My Heart (06:13)
16 I'm Yours (04:14)
17 Everthing (04:07)

EAC log
Exact Audio Copy V0.99 prebeta 5 from 4. May 2009

EAC extraction logfile from 5. December 2009, 12:16

Quincy Jones / Ultimate Collection

Used drive : PIONEER DVD-RW DVR-K16D Adapter: 1 ID: 0

Read mode : Secure
Utilize accurate stream : Yes
Defeat audio cache : Yes
Make use of C2 pointers : No

Read offset correction : 48
Overread into Lead-In and Lead-Out : No
Fill up missing offset samples with silence : Yes
Delete leading and trailing silent blocks : No
Null samples used in CRC calculations : Yes
Used interface : Native Win32 interface for Win NT & 2000

Used output format : Internal WAV Routines
Sample format : 44.100 Hz; 16 Bit; Stereo


TOC of the extracted CD

Track | Start | Length | Start sector | End sector
---------------------------------------------------------
1 | 0:00.00 | 3:37.42 | 0 | 16316
2 | 3:37.42 | 6:01.70 | 16317 | 43461
3 | 9:39.37 | 3:59.00 | 43462 | 61386
4 | 13:38.37 | 3:17.35 | 61387 | 76196
5 | 16:55.72 | 3:29.18 | 76197 | 91889
6 | 20:25.15 | 3:07.70 | 91890 | 105984
7 | 23:33.10 | 4:13.42 | 105985 | 125001
8 | 27:46.52 | 4:10.00 | 125002 | 143751
9 | 31:56.52 | 4:35.00 | 143752 | 164376
10 | 36:31.52 | 3:35.18 | 164377 | 180519
11 | 40:06.70 | 4:19.55 | 180520 | 199999
12 | 44:26.50 | 4:56.05 | 200000 | 222204
13 | 49:22.55 | 6:40.55 | 222205 | 252259
14 | 56:03.35 | 4:53.37 | 252260 | 274271
15 | 60:56.72 | 6:13.20 | 274272 | 302266
16 | 67:10.17 | 4:14.23 | 302267 | 321339
17 | 71:24.40 | 4:06.62 | 321340 | 339851


Range status and errors

Selected range

Filename D:\Quincy Jones - Ultimate Collection.wav

Peak level 97.7 %
Range quality 99.9 %
Test CRC C52985D0
Copy CRC C52985D0
Copy OK

No errors occurred


AccurateRip summary

Track 1 accurately ripped (confidence 5) [3562511D]
Track 2 accurately ripped (confidence 5) [2F9E7BA2]
Track 3 accurately ripped (confidence 5) [2D983C8E]
Track 4 accurately ripped (confidence 5) [BD32C554]
Track 5 accurately ripped (confidence 5) [385B9B98]
Track 6 accurately ripped (confidence 5) [D03CE131]
Track 7 accurately ripped (confidence 5) [CDE92396]
Track 8 accurately ripped (confidence 5) [B3FEF2C3]
Track 9 accurately ripped (confidence 5) [4EF6D8DD]
Track 10 accurately ripped (confidence 5) [07B8D013]
Track 11 accurately ripped (confidence 5) [99B3EE24]
Track 12 accurately ripped (confidence 5) [74606135]
Track 13 accurately ripped (confidence 5) [10FEA774]
Track 14 accurately ripped (confidence 5) [AA5C27EF]
Track 15 accurately ripped (confidence 5) [114459C7]
Track 16 accurately ripped (confidence 5) [7719C15C]
Track 17 accurately ripped (confidence 5) [C769D899]

All tracks accurately ripped

End of status report



==================================

[email protected]:

lossless:
part 1 | part 3 | part 3 | part 4 | part 5

mp3:
download

==================================

[email protected]:

lossless:
part 1 | part 3 | part 3 | part 4 | part 5

mp3:
download

==================================

no password
ADVERTISING » Download fast « ADVERTISING
Posted By: makoll48 Date: 08 Feb 2022 23:45:41
Lossless + Rapidshare = so good.
Thanks for share this.
Recent searches:
DONATE AVAXHOME:

Donate please!