Loading...
Done
Home > Music > +Jazz > Fusion
Matthew Garrison - Live
Posted By : Fusion_Brasil | Date : 28 Feb 2022 13:40:54 | Comments : 0

Matthew Garrison - Live (CD + DVD) (2004)
Audio CD: Lossless | EAC/FLAC | Separate Trax | CUE + Log + Complete Scans | 3 rar files (5% rec.) ~260 MB | RS
DVD: NTSC All Regions| VOB Files | 31 rar files (5% rec.) ~2.8 GB | RS
Genre: Bass Virtuoso | Instrumental | Jazz | Fusion


This album is deeply musical, if occasionally affected; there is a hint of the sort of contrived emotion of smooth jazz in the melodic themes,but only here and there. For the most part, the compositions' structures, as well as the improvisational ideas, are cohesive, flowing and very sophisticated. Garrison's bass playing itself is best when he is accompanying the guitarist; he proves himself a knowledgeable theoretician and excellent listener by using astute substitutions and hip, Pastorian counterpoint.



DVD Chapters:
Family
Shapeless
Duet
Groove Tune
Dark Matter
Arto's Song
Turn Around
Duet 9/4
Additional Footage


CD Trax:
1.Family
2.Shapeless
3.Duet
4.Groove Tune
5.Dark Matter
6.Turn Around
7.Duet 9.4

EAC Log
Exact Audio Copy V0.99 prebeta 5 from 4. May 2009

EAC extraction logfile from 27. February 2010, 8:15

Matt Garrison / Matt Garrison Live CD

Used drive : HL-DT-STDVDRAM GH20NS10 Adapter: 1 ID: 0

Read mode : Secure
Utilize accurate stream : Yes
Defeat audio cache : Yes
Make use of C2 pointers : No

Read offset correction : 667
Overread into Lead-In and Lead-Out : No
Fill up missing offset samples with silence : Yes
Delete leading and trailing silent blocks : No
Null samples used in CRC calculations : Yes
Used interface : Native Win32 interface for Win NT & 2000
Gap handling : Appended to previous track

Used output format : User Defined Encoder
Selected bitrate : 1024 kBit/s
Quality : High
Add ID3 tag : No
Command line compressor : C:\Program Files\Exact Audio Copy\Flac\flac.exe
Additional command line options : -V -8 -T "artist=%a" -T "title=%t" -T "album=%g" -T "date=%y" -T "tracknumber=%n" -T "genre=%m" %s


TOC of the extracted CD

Track | Start | Length | Start sector | End sector
---------------------------------------------------------
1 | 0:00.00 | 8:04.50 | 0 | 36349
2 | 8:04.50 | 4:59.47 | 36350 | 58821
3 | 13:04.22 | 3:26.15 | 58822 | 74286
4 | 16:30.37 | 5:53.01 | 74287 | 100762
5 | 22:23.38 | 6:38.12 | 100763 | 130624
6 | 29:01.50 | 6:45.59 | 130625 | 161058
7 | 35:47.34 | 6:42.32 | 161059 | 191240


Track 1

Filename C:\Temp\Matt Garrison\Matt Garrison Live CD\01 - Family.wav

Pre-gap length 0:00:02.00

Peak level 64.6 %
Track quality 100.0 %
Test CRC 90AC3C4A
Copy CRC 90AC3C4A
Track not present in AccurateRip database
Copy OK

Track 2

Filename C:\Temp\Matt Garrison\Matt Garrison Live CD\02 - Shapeless.wav

Pre-gap length 0:00:01.74

Peak level 55.1 %
Track quality 100.0 %
Test CRC 4F652970
Copy CRC 4F652970
Track not present in AccurateRip database
Copy OK

Track 3

Filename C:\Temp\Matt Garrison\Matt Garrison Live CD\03 - Duet.wav

Pre-gap length 0:00:01.74

Peak level 77.2 %
Track quality 99.9 %
Test CRC 23E25B6D
Copy CRC 23E25B6D
Track not present in AccurateRip database
Copy OK

Track 4

Filename C:\Temp\Matt Garrison\Matt Garrison Live CD\04 - Groove Tune.wav

Pre-gap length 0:00:01.74

Peak level 79.3 %
Track quality 100.0 %
Test CRC E95FAFFB
Copy CRC E95FAFFB
Track not present in AccurateRip database
Copy OK

Track 5

Filename C:\Temp\Matt Garrison\Matt Garrison Live CD\05 - Dark Matter.wav

Pre-gap length 0:00:01.74

Peak level 74.7 %
Track quality 100.0 %
Test CRC E0CD2720
Copy CRC E0CD2720
Track not present in AccurateRip database
Copy OK

Track 6

Filename C:\Temp\Matt Garrison\Matt Garrison Live CD\06 - Turn Around.wav

Pre-gap length 0:00:01.74

Peak level 63.8 %
Track quality 99.9 %
Test CRC C83D4519
Copy CRC C83D4519
Track not present in AccurateRip database
Copy OK

Track 7

Filename C:\Temp\Matt Garrison\Matt Garrison Live CD\07 - Duet 9,4.wav

Pre-gap length 0:00:01.74

Peak level 85.8 %
Track quality 100.0 %
Test CRC 1EAB4EA7
Copy CRC 1EAB4EA7
Track not present in AccurateRip database
Copy OK


None of the tracks are present in the AccurateRip database

No errors occurred

End of status report

ADVERTISING » Download fast « ADVERTISING
No comments for the news
Recent searches:
DONATE AVAXHOME:

Donate please!